↑↓torrent.by
Поиск
Логин:  Регистрация
Пароль:

Май декабрь / May December (2023) WEB-DL 1080p от ELEKTRI4KA | D

download Скачать торрент-файл   magnet Магнитная ссылка Размер: 5.02 GB Добавлен: 2024-03-30 05:00
Пиры будут получены из сети DHT
Последний сидер был замечен сегодня в 10:35
«Актриса Элизабет приезжает погостить к паре, чью скандальную историю любви ей нужно будет воплотить на экране» Информация о фильме Название: Май декабрь Оригинальное название: May December Год выхода: 2023 Жанр: драма, мелодрама, комедия Режиссер: Тодд Хейнс В ролях: Натали Портман, Джулианна Мур, Чарльз Мелтон, Пайпер Курда, Кори Майкл Смит, Д.Ю. Моффетт, Дрю Шейд, Элизабет Й, Джоселин Шелфо, Андреа Франкл О фильме: Скандальный роман учительницы с её учеником попал на первые страницы всех таблоидов. Спустя 20 лет супруги Джо и Грейси счастливы в браке и воспитывают близнецов. Об их истории запретной любви решают снять фильм. Поэтому актриса, которая должна сыграть Грейси, сближается с парой, чтобы лучше подготовиться к роли, но её появление становится испытанием для пары даже после долгой совместной жизни. Выпущено: США / Gloria Sanchez Productions, Killer Films, MountainA Продолжительность: 01:54:00 Озвучивание: Дублированное | Pride Production Файлы Формат: MKV Качество: WEB-DL 1080p Видео: MPEG-4 AVC, 5000 Kb/s, 1920x1080 Аудио: Russian: AC3, 448 Kb/s (6 ch) / E-AC3, 448 Kb/s (6 ch), English: E-AC3, 448 Kb/s (6 ch) Субтитры: Russian (Full) Дополнительно: Нет Релиз группы:  | Мы в Telegram:
[+] Инфо-файл:Complete name: May.dekabr.2023.WEB-DL.1080p.ELEKTRI4KA.mkv Format: Matroska Format version: Version 4 File size: 5.02 GiB Duration: 1 h 54 min Overall bit rate: 6 303 kb/s Movie name: May.dekabr.2023.WEB-DL.1080p.ELEKTRI4KA. Encoded date: UTC 2024-03-29 11:29:34 Writing application: mkvmerge v8.3.0 ('Over the Horizon') 64bit Writing library: libebml v1.3.1 + libmatroska v1.4.2 Video ID: 1 Format: AVC Format/Info: Advanced Video Codec Format profile: High@L4 Format settings: CABAC / 3 Ref Frames Format settings, CABAC: Yes Format settings, Reference frames: 3 frames Codec ID: V_MPEG4/ISO/AVC Duration: 1 h 54 min Bit rate: 5 000 kb/s Width: 1 920 pixels Height: 1 080 pixels Display aspect ratio: 16:9 Frame rate mode: Constant Frame rate: 24.000 FPS Color space: YUV Chroma subsampling: 4:2:0 Bit depth: 8 bits Scan type: Progressive Bits/(Pixel*Frame): 0.100 Stream size: 3.95 GiB (79%) Writing library: x264 core 164 r3095 baee400 Encoding settings: cabac=1 / ref=4 / deblock=1:-1:-1 / analyse=0x3:0x133 / me=umh / subme=9 / psy=1 / psy_rd=0.40:1.00 / mixed_ref=1 / me_range=24 / chroma_me=1 / trellis=0 / 8x8dct=1 / cqm=0 / deadzone=21, 11 / fast_pskip=1 / chroma_qp_offset=-2 / threads=3 / lookahead_threads=1 / sliced_threads=0 / nr=0 / decimate=1 / interlaced=0 / bluray_compat=0 / stitchable=1 / constrained_intra=0 / bframes=8 / b_pyramid=1 / b_adapt=0 / b_bias=0 / direct=3 / weightb=1 / open_gop=0 / weightp=2 / keyint=72 / keyint_min=37 / scenecut=0 / intra_refresh=0 / rc_lookahead=40 / rc=2pass / mbtree=1 / bitrate=5000 / ratetol=1.0 / qcomp=0.80 / qpmin=1 / qpmax=69 / qpstep=4 / cplxblur=20.0 / qblur=0.5 / vbv_maxrate=7500 / vbv_bufsize=10000 / nal_hrd=none / filler=0 / ip_ratio=1.40 / aq=1:1.00 Default: Yes Forced: No Color range: Limited Color primaries: BT.709 Transfer characteristics: BT.709 Matrix coefficients: BT.709 Audio #1 ID: 2 Format: AC-3 Format/Info: Audio Coding 3 Commercial name: Dolby Digital Codec ID: A_AC3 Duration: 1 h 54 min Bit rate mode: Constant Bit rate: 448 kb/s Channel(s): 6 channels Channel layout: L R C LFE Ls Rs Sampling rate: 48.0 kHz Frame rate: 31.250 FPS (1536 SPF) Compression mode: Lossy Stream size: 365 MiB (7%) Title: DUB AC3 (Pride Production) Language: Russian Service kind: Complete Main Default: Yes Forced: Yes Audio #2 ID: 3 Format: E-AC-3 Format/Info: Enhanced AC-3 Commercial name: Dolby Digital Plus Codec ID: A_EAC3 Duration: 1 h 54 min Bit rate mode: Constant Bit rate: 448 kb/s Channel(s): 6 channels Channel layout: L R C LFE Ls Rs Sampling rate: 48.0 kHz Frame rate: 31.250 FPS (1536 SPF) Compression mode: Lossy Stream size: 365 MiB (7%) Title: DUB EAC3 (Pride Production) Language: Russian Service kind: Complete Main Default: No Forced: No Audio #3 ID: 4 Format: E-AC-3 Format/Info: Enhanced AC-3 Commercial name: Dolby Digital Plus Codec ID: A_EAC3 Duration: 1 h 54 min Bit rate mode: Constant Bit rate: 448 kb/s Channel(s): 6 channels Channel layout: L R C LFE Ls Rs Sampling rate: 48.0 kHz Frame rate: 31.250 FPS (1536 SPF) Compression mode: Lossy Stream size: 365 MiB (7%) Title: Original Language: English Service kind: Complete Main Default: No Forced: No Text ID: 5 Format: UTF-8 Codec ID: S_TEXT/UTF8 Codec ID/Info: UTF-8 Plain Text Duration: 1 h 46 min Bit rate: 79 b/s Count of elements: 1216 Stream size: 62.1 KiB (0%) Title: Full Language: Russian Default: No Forced: No
[+] Скриншоты

Всего файлов в раздаче: 1 
May.dekabr.2023.WEB-DL.1080p.ELEKTRI4KA.mkv5.02 GB

Похожие раздачи по запросу - Май
2024-03-30 magnet Май декабрь / May December (2023) WEB-DLRip от toxics & селезень | D 1.46 GB ↑ 0 ↓ 0
2024-03-29 magnet Май декабрь / May December (2023) WEB-DLRip от MegaPeer | D 1.46 GB ↑ 0 ↓ 0
2023-05-27 magnet Радио №05 (Май) (2023) PDF 12.58 MB ↑ 0 ↓ 0
2023-05-22 magnet 1000 советов дачнику №10 (Май) (2023) PDF 6.12 MB ↑ 0 ↓ 0
2023-05-22 magnet 1000 советов кулинару №05 (Май) (2023) PDF 52.57 MB ↑ 0 ↓ 0
2022-04-29 magnet За рулем №05 [1091] (Май) (2022) PDF 88.39 MB ↑ 0 ↓ 0

Комментарии


Зарегистрируйтесь чтобы добавить комментарий
Торрент клиент
byTorrent - программа для загрузки торрент-файлов.

Скачать byTorrent.exe (1,5 МБ)

Скачать byTorrent.zip (0,6 МБ)

Поддержи torrent.by
российских рублей
(300 российских рублей это 4$)

Обратная связь rss

End game ©