↑↓torrent.by
Поиск
Логин:  Регистрация
Пароль:

Вистинг / Уистинг / Wisting [S02] (2021) WEB-DLRip-AVC от DoMiNo | Кубик в Кубе

download Скачать торрент-файл   magnet Магнитная ссылка Размер: 2.22 GB Добавлен: 2024-03-30 05:00
Пиры будут получены из сети DHT
Последний сидер был замечен 2024-04-09 13:30
Информация о фильме Название: Вистинг (Уистинг) Оригинальное название: Wisting Год выхода: 2021 Жанр: Криминал, детектив Режиссер: Тригве Аллистер Дайсен, Катарина Лаунинг В ролях: Свен Нордин, Кэрри-Энн Мосс, Мэдс Оусдаль, Гард Б. Эйдсвольд, Ларс Берге, Ульрикке Хансен Дёвиген, Ирина Эйдсвольд Тойен, Хьерсти Сандал, Хайди Голдман, Даниэль Фрикстад О фильме: В центре сюжета сериала, основанного на детективных романах Йорна Хорста, оказывается Уильям Вистинг — дотошный и честолюбивый полицейский, который занимается охотой на самых известных преступников Норвегии. Однажды во время расследования убийства, совершенного на рождественской ярмарке, детектив получает доказательства того, что в преступлении замешан известный американский серийный убийца. Для Вистинга становится делом чести арестовать неуловимого психопата, однако масштабные розыскные мероприятия не приносят результат... Страна: Норвегия Студия: Cinenord Drama, Good Company Films, Ripple World Pictures Продолжительность: 4 x ~ 00:54:00 Перевод: Профессиональный двухголосый (Кубик в Кубе) Субтитры: Русские, английские, литовские, латышские, эстонские, польские Файл Формат: Matroska Качество: WEB-DLRip-AVC Видео: 1024x426 at 25.000 fps, x264@L4.1, ~1600 kbps Аудио: AC3, 2 ch, ~192 kbps - | Русский | Формат субтитров: softsub (SRT) ► Без Рекламы! ***Релиз от: -=DoMiNo=-
[+] M/Ix264 : frame I:545 Avg QP:14.75 size: 66071 x264 : frame P:14001 Avg QP:17.22 size: 19396 x264 : frame B:53228 Avg QP:19.39 size: 4404 General Unique ID : 35376207597509423652862607197221406747 (0x1A9D35B260E6EAA417D164FA0523C81B) Complete name : K:Wisting.S02.E02.DVO.WEB-DLRip.x264.mkv Format : Matroska Format version : Version 4 File size : 580 MiB Duration : 45 min 10 s Overall bit rate : 1 795 kb/s Encoded date : UTC 2022-01-09 16:00:49 Writing application : mkvmerge v64.0.0 ('Willows') 64-bit Writing library : libebml v1.4.2 + libmatroska v1.6.4 Cover : Yes Attachments : cover.jpg / cover 2.jpg Video ID : 1 Format : AVC Format/Info : Advanced Video Codec Format profile : High@L4.1 Format settings : CABAC / 11 Ref Frames Format settings, CABAC : Yes Format settings, Reference : 11 frames Codec ID : V_MPEG4/ISO/AVC Duration : 45 min 10 s Bit rate : 1 600 kb/s Width : 1 024 pixels Height : 426 pixels Display aspect ratio : 2.40:1 Frame rate mode : Constant Frame rate : 25.000 FPS Color space : YUV Chroma subsampling : 4:2:0 Bit depth : 8 bits Scan type : Progressive Bits/(Pixel*Frame) : 0.147 Stream size : 517 MiB (89%) Title : -=DoMiNo=- Writing library : x264 core 164 r3081 19856cc Encoding settings : cabac=1 / ref=11 / deblock=1:-2:-1 / analyse=0x3:0x133 / me=umh / subme=9 / psy=1 / psy_rd=1.00:0.15 / mixed_ref=1 / me_range=32 / chroma_me=1 / trellis=2 / 8x8dct=1 / cqm=0 / deadzone=21,11 / fast_pskip=0 / chroma_qp_offset=-3 / threads=13 / lookahead_threads=3 / sliced_threads=0 / nr=0 / decimate=0 / interlaced=0 / bluray_compat=0 / constrained_intra=0 / bframes=10 / b_pyramid=2 / b_adapt=2 / b_bias=0 / direct=3 / weightb=1 / open_gop=0 / weightp=2 / keyint=250 / keyint_min=25 / scenecut=40 / intra_refresh=0 / rc_lookahead=60 / rc=2pass / mbtree=0 / bitrate=1600 / ratetol=1.0 / qcomp=0.60 / qpmin=0 / qpmax=69 / qpstep=4 / cplxblur=20.0 / qblur=0.5 / vbv_maxrate=50000 / vbv_bufsize=62500 / nal_hrd=none / filler=0 / ip_ratio=1.40 / pb_ratio=1.30 / aq=2:1.00 Language : English Default : Yes Forced : No Audio ID : 2 Format : AC-3 Format/Info : Audio Coding 3 Commercial name : Dolby Digital Codec ID : A_AC3 Duration : 45 min 10 s Bit rate mode : Constant Bit rate : 192 kb/s Channel(s) : 2 channels Channel layout : L R Sampling rate : 48.0 kHz Frame rate : 31.250 FPS (1536 SPF) Compression mode : Lossy Stream size : 62.0 MiB (11%) Language : Russian Service kind : Complete Main Default : Yes Forced : No Text #1 ID : 3 Format : UTF-8 Codec ID : S_TEXT/UTF8 Codec ID/Info : UTF-8 Plain Text Duration : 43 min 34 s Bit rate : 81 b/s Count of elements : 489 Stream size : 26.1 KiB (0%) Language : Russian Default : No Forced : No Text #2 ID : 4 Format : UTF-8 Codec ID : S_TEXT/UTF8 Codec ID/Info : UTF-8 Plain Text Duration : 43 min 42 s Bit rate : 50 b/s Count of elements : 420 Stream size : 16.2 KiB (0%) Language : English Default : No Forced : No Text #3 ID : 5 Format : UTF-8 Codec ID : S_TEXT/UTF8 Codec ID/Info : UTF-8 Plain Text Duration : 43 min 42 s Bit rate : 42 b/s Count of elements : 420 Stream size : 13.6 KiB (0%) Language : Lithuanian Default : No Forced : No Text #4 ID : 6 Format : UTF-8 Codec ID : S_TEXT/UTF8 Codec ID/Info : UTF-8 Plain Text Duration : 43 min 42 s Bit rate : 51 b/s Count of elements : 420 Stream size : 16.4 KiB (0%) Language : Latvian Default : No Forced : No Text #5 ID : 7 Format : UTF-8 Codec ID : S_TEXT/UTF8 Codec ID/Info : UTF-8 Plain Text Duration : 43 min 42 s Bit rate : 49 b/s Count of elements : 418 Stream size : 15.9 KiB (0%) Language : Estonian Default : No Forced : No Text #6 ID : 8 Format : UTF-8 Codec ID : S_TEXT/UTF8 Codec ID/Info : UTF-8 Plain Text Duration : 43 min 42 s Bit rate : 45 b/s Count of elements : 415 Stream size : 14.7 KiB (0%) Language : Polish Default : No Forced : No
[+] Скриншоты

Всего файлов в раздаче: 4 
Wisting.S02.E01.DVO.WEB-DLRip.x264.mkv563.57 MB
Wisting.S02.E02.DVO.WEB-DLRip.x264.mkv579.99 MB
Wisting.S02.E03.DVO.WEB-DLRip.x264.mkv555.94 MB
Wisting.S02.E04.DVO.WEB-DLRip.x264.mkv574.12 MB

Похожие раздачи по запросу - Вистинг
2024-03-31 magnet Вистинг / Уистинг / Wisting [S04] (2024) WEB-DLRip-AVC от DoMiNo & селезень | HDrezka Studio 1.94 GB ↑ 0 ↓ 0
2024-03-31 magnet Вистинг / Уистинг / Wisting [S03] (2022) WEB-DLRip-AVC от DoMiNo | Кубик в Кубе 2.70 GB ↑ 0 ↓ 0
2024-03-29 magnet Вистинг / Уистинг / Wisting [S01] (2019) WEB-DLRip-AVC от DoMiNo | Кубик в Кубе 6.34 GB ↑ 0 ↓ 0

Комментарии

Ne04eM
Второй сезон не хуже первого, посмотрели запоем за вечер. Большое спасибо за размер и качество!


Зарегистрируйтесь чтобы добавить комментарий
Торрент клиент
byTorrent - программа для загрузки торрент-файлов.

Скачать byTorrent.exe (1,5 МБ)

Скачать byTorrent.zip (0,6 МБ)

Поддержи torrent.by
российских рублей
(300 российских рублей это 4$)

Обратная связь rss

End game ©