↑↓torrent.by
Поиск
Логин:  Регистрация
Пароль:

Недетское кино / Not Another Teen Movie (2001) BDRip | P

download Скачать торрент-файл   magnet Магнитная ссылка Размер: 1.45 GB Добавлен: 2024-03-30 11:00
Пиры будут получены из сети DHT
Последний сидер был замечен 2024-04-01 20:28
Информация о фильме Название: Недетское кино Оригинальное название: Not Another Teen Movie Год выхода: 2001 Жанр: комедия Режиссер: Джоел Галлен В ролях: Кайлер Ли, Крис Эванс, Джейми Прессли, Эрик Кристиан Олсен, Миа Киршнер, Дион Ричмонд, Эрик Джангманн, Рон Лестер, Коди МакМейнс, Сэм Хантингтон О фильме: Популярный в школе парень и звезда футбольной команды Джейк Уилер, ослепленный собственной славой и успехом, заключает пари со своими друзьями. Уилер делает ставку на то, что может сделать из любой девушки, посещающей их школу королеву школьного бала. Друзья сразу же выбирают предмет своей шутки — внешне малопривлекательную начинающую художницу Джэни Бриггс, чей комбинезон всегда в краске, которая носит очки и собирает свои волосы в «хвост». Джэни является изгоем в своем классе, однако пройдя через ряд событий, Уиллер понимает, что он любит этого «гадкого утенка»… Страна: США Студия: Columbia Pictures Corporation Продолжительность: 01:29:00 Перевод: Профессиональный многоголосный, закадровый Файл Кодек: XviD Качество: BDRip Видео: XviD 73, 720x384, 23,976 fps, ~1871 Kbps Звук: AC3, 6 ch, 48 kHz, ~448 kbps (MVO ВидеоСервис DVD9) Субтитры: нет
[+] M/IGeneral Complete name : D:Недетское кино.(2001).BDRIP..avi Format : AVI Format/Info : Audio Video Interleave File size : 1.45 GiB Duration : 1 h 29 min Overall bit rate : 2 328 kb/s Writing library : VirtualDub build 35491/release Video ID : 0 Format : MPEG-4 Visual Format profile : Advanced Simple@L5 Format settings, BVOP : 2 Format settings, QPel : No Format settings, GMC : No warppoints Format settings, Matrix : Custom Muxing mode : Packed bitstream Codec ID : XVID Codec ID/Hint : XviD Duration : 1 h 29 min Bit rate : 1 871 kb/s Width : 720 pixels Height : 384 pixels Display aspect ratio : 1.85:1 Frame rate : 23.976 (24000/1001) FPS Color space : YUV Chroma subsampling : 4:2:0 Bit depth : 8 bits Scan type : Progressive Compression mode : Lossy Bits/(Pixel*Frame) : 0.282 Stream size : 1.16 GiB (80%) Writing library : XviD 73 Audio ID : 1 Format : AC-3 Format/Info : Audio Coding 3 Mode extension : CM (complete main) Format settings, Endianness : Big Codec ID : 2000 Duration : 1 h 29 min Bit rate mode : Constant Bit rate : 448 kb/s Channel(s) : 6 channels Channel positions : Front: L C R, Side: L R, LFE Sampling rate : 48.0 kHz Frame rate : 31.250 FPS (1536 spf) Bit depth : 16 bits Compression mode : Lossy Stream size : 285 MiB (19%) Alignment : Aligned on interleaves Interleave, duration : 42 ms (1.00 video frame) Interleave, preload duratio : 512 ms
[+] Скриншоты

Всего файлов в раздаче: 1 
Недетское кино.(2001).BDRIP.[-=DoMiNo=-].avi1.45 GB

Похожие раздачи по запросу - Недетское
2024-03-31 magnet Недетское кино / Not Another Teen Movie (2001) BDRip от p3rr3nt | D 1.37 GB ↑ 0 ↓ 0
2024-03-30 magnet Недетское кино / Not Another Teen Movie (2001) BDRip-AVC от msltel | D, P, P2, A | Театральная версия 3.73 GB ↑ 0 ↓ 0

Комментарии


Зарегистрируйтесь чтобы добавить комментарий
Торрент клиент
byTorrent - программа для загрузки торрент-файлов.

Скачать byTorrent.exe (1,5 МБ)

Скачать byTorrent.zip (0,6 МБ)

Поддержи torrent.by
российских рублей
(300 российских рублей это 4$)

Обратная связь rss

End game ©