↑↓torrent.by
Поиск
Логин:  Регистрация
Пароль:

Уникальные способности животных / Super Senses: The World we Miss (2022) HDTV 1080i | P1

download Скачать торрент-файл   magnet Магнитная ссылка Размер: 2.63 GB Добавлен: 2024-03-30 11:00
Пиры будут получены из сети DHT
Последний сидер был замечен 2024-04-05 17:29
Информация о фильме Название: Уникальные способности животных Оригинальное название: Super Senses: The World we Miss Год выхода: 2022 Жанр: Документальный, природа, флора, фауна Режиссер: Фил Коулз О фильме: Органы чувств человека невероятны, но мы способны видеть, слышать и обонять лишь малую толику из того, что в действительности нас окружает. От нас скрыт целый мир, который доступен нашим братьям меньшим на всей планете. Авторы сериала попытались выйти за пределы человеческого восприятия, чтобы исследовать необычный и удивительный мир чувств животных. Страна: Германия Студия: NDR Naturfilm, Doclights Продолжительность: 00:51:59 Перевод: Профессиональный (одноголосый закадровый) Файл Кодек: AVC/H.264 Качество: HDTV 1080i Видео: 1920x1080 (16:9), 25 fps, AVC (H.264), High@L4, 6701 kbps, 0.129 bit/pixel Звук: Русский 48 kHz, MPEG Layer 2, 2 ch, 192 kbps Семпл
[+] MediaInfoComplete name : F:НаладкиYникальные способности животных.ts Format : MPEG-TS File size : 2.63 GiB Duration : 51 min 59 s Overall bit rate mode : Variable Overall bit rate : 7 253 kb/s Frame rate : 25.000 FPS Video ID : 1986 (0x7C2) Menu ID : 239 (0xEF) Format : AVC Format/Info : Advanced Video Codec Format profile : High@L4 Format settings : CABAC / 4 Ref Frames Format settings, CABAC : Yes Format settings, Reference : 4 frames Format settings, GOP : M=3, N=50 Codec ID : 27 Duration : 51 min 59 s Bit rate : 6 701 kb/s Width : 1 920 pixels Height : 1 080 pixels Display aspect ratio : 16:9 Frame rate : 25.000 FPS Standard : Component Color space : YUV Chroma subsampling : 4:2:0 Bit depth : 8 bits Scan type : Interlaced Scan type, store method : Separated fields Scan order : Top Field First Bits/(Pixel*Frame) : 0.129 Stream size : 2.43 GiB (92%) Color range : Limited Color primaries : BT.709 Transfer characteristics : BT.709 Matrix coefficients : BT.709 Audio ID : 1987 (0x7C3) Menu ID : 239 (0xEF) Format : MPEG Audio Format version : Version 1 Format profile : Layer 2 Codec ID : 3 Duration : 51 min 59 s Bit rate mode : Constant Bit rate : 192 kb/s Channel(s) : 2 channels Sampling rate : 48.0 kHz Frame rate : 41.667 FPS (1152 SPF) Compression mode : Lossy Stream size : 71.4 MiB (3%) Language : Russian
[+] Скриншоты
Релиз от: kyba

Всего файлов в раздаче: 1 
Yникальные способности животных.ts2.63 GB

Комментарии


Зарегистрируйтесь чтобы добавить комментарий
Торрент клиент
byTorrent - программа для загрузки торрент-файлов.

Скачать byTorrent.exe (1,5 МБ)

Скачать byTorrent.zip (0,6 МБ)

Поддержи torrent.by
российских рублей
(300 российских рублей это 4$)

Обратная связь rss

End game ©