↑↓torrent.by
Поиск
Логин:  Регистрация
Пароль:

Переводчица / The Interpreter (2005) BDRip от ivandubskoj | D, P, P2

download Скачать торрент-файл   magnet Магнитная ссылка Размер: 2.74 GB Добавлен: 2024-03-30 17:00
Пиры будут получены из сети DHT
Последний сидер был замечен 2024-03-30 23:00
Информация о фильме Название: Переводчица Оригинальное название: The Interpreter Год выхода: 2005 Жанр: Триллер, детектив, драма, криминал Режиссёр: Сидни Поллак В ролях: Николь Кидман, Шон Пенн, Кэтрин Кинер, Джеспер Кристенсен, Иван Атталь, Эрл Кэмерон, Джордж Харрис, Майкл Райт, Клайд Кусацу, Эрик Кинлисайд, Хьюго Спир, Маз Джобрани, Юсуф Гейтвуд, Кертисс Кук, Байрон Атли, Роберт Клохесси, Терри Серпико, Джон Нокс, Дэвид Зайас О фильме: Переводчица случайно узнает о готовящемся убийстве главы одного африканского государства, который должен на днях посетить Генеральную ассамблею ООН. Пытаясь предотвратить покушение, она подвергает свою жизнь смертельной опасности. И пока она сама не стала жертвой, ей отчаянно нужно, чтобы кто-нибудь ей поверил и помог… Страна: США Студия: Universal Pictures, Working Title Films, Misher Films, Mirage Entertainment, Studio Canal, Motion Picture JOTA Produktions Продолжительность: 02:08:19 Перевод: Дублированный (Мосфильм-Мастер), профессиональный многоголосый, профессиональный двухголосый (Tycoon-Studio) Оригинальная аудио-дорожка: Нет Файл Кодек: XviD Качество: BDRip Видео: XviD, 1757 Кбит/с, 720х304 (2.35:1), 23.976 кадр/с Аудио #1: Русский, Dolby AC3, 48000 Гц, 448 Кбит/с, 6 каналов (5.1) - DUB, BD EUR Аудио #2: Русский, Dolby AC3, 48000 Гц, 384 Кбит/с, 6 каналов (5.1) - MVO, R5 Аудио #3: Русский, Dolby AC3, 48000 Гц, 448 Кбит/с, 6 каналов (5.1) - DVO, R7 Субтитры: Нет
[+] MediaInfo General Complete name : Perevodchitsa.2005.Triple.BDRip.avi Format : AVI Format/Info : Audio Video Interleave Format profile : OpenDML File size : 2.74 GiB Duration : 2h 8mn Overall bit rate : 3 052 Kbps Movie name : Переводчица / The Interpreter (2005) BDRip Genre : Триллер, детектив, драма, криминал Recorded date : 12.09.2014 Writing application : VirtualDubMod 1.5.10.3 | www.virtualdub-fr.org || (build 2550/release) Writing library : VirtualDubMod build 2550/release Copyright : rip by ivandubskoj Video ID : 0 Format : MPEG-4 Visual Format profile : Advanced Simple@L5 Format settings, BVOP : 1 Format settings, QPel : No Format settings, GMC : No warppoints Format settings, Matrix : Custom Codec ID : XVID Codec ID/Hint : XviD Duration : 2h 8mn Bit rate : 1 756 Kbps Width : 720 pixels Height : 304 pixels Display aspect ratio : 2.35:1 Frame rate : 23.976 fps Color space : YUV Chroma subsampling : 4:2:0 Bit depth : 8 bits Scan type : Progressive Compression mode : Lossy Bits/(Pixel*Frame) : 0.335 Stream size : 1.57 GiB (58%) Writing library : XviD 73 Audio #1 ID : 1 Format : AC-3 Format/Info : Audio Coding 3 Mode extension : CM (complete main) Codec ID : 2000 Duration : 2h 8mn Bit rate mode : Constant Bit rate : 448 Kbps Channel(s) : 6 channels Channel positions : Front: L C R, Side: L R, LFE Sampling rate : 48.0 KHz Bit depth : 16 bits Compression mode : Lossy Stream size : 411 MiB (15%) Alignment : Split accross interleaves Interleave, duration : 64 ms (1.53 video frames) Interleave, preload duration : 500 ms Title : Russian, BD EUR Audio #2 ID : 2 Format : AC-3 Format/Info : Audio Coding 3 Mode extension : CM (complete main) Codec ID : 2000 Duration : 2h 8mn Bit rate mode : Constant Bit rate : 384 Kbps Channel(s) : 6 channels Channel positions : Front: L C R, Side: L R, LFE Sampling rate : 48.0 KHz Bit depth : 16 bits Compression mode : Lossy Stream size : 352 MiB (13%) Alignment : Split accross interleaves Interleave, duration : 64 ms (1.53 video frames) Interleave, preload duration : 500 ms Title : MVO, R5 Audio #3 ID : 3 Format : AC-3 Format/Info : Audio Coding 3 Mode extension : CM (complete main) Codec ID : 2000 Duration : 2h 8mn Bit rate mode : Constant Bit rate : 448 Kbps Channel(s) : 6 channels Channel positions : Front: L C R, Side: L R, LFE Sampling rate : 48.0 KHz Bit depth : 16 bits Compression mode : Lossy Stream size : 411 MiB (15%) Alignment : Split accross interleaves Interleave, duration : 64 ms (1.53 video frames) Interleave, preload duration : 500 ms Title : Russian, DVO, R7
[+] Скриншоты
Автор рипа - ivandubskoj

Всего файлов в раздаче: 1 
Perevodchitsa.2005.Triple.BDRip.avi2.74 GB

Похожие раздачи по запросу - Переводчица
2024-03-14 magnet Гинеколог и его переводчица / Le gynécologue et son interprete (2014) DVB | Sub 616.66 MB ↑ 0 ↓ 0

Комментарии


Зарегистрируйтесь чтобы добавить комментарий
Торрент клиент
byTorrent - программа для загрузки торрент-файлов.

Скачать byTorrent.exe (1,5 МБ)

Скачать byTorrent.zip (0,6 МБ)

Поддержи torrent.by
российских рублей
(300 российских рублей это 4$)

Обратная связь rss

End game ©