↑↓torrent.by
Поиск
Логин:  Регистрация
Пароль:

Новая Битва экстрасенсов [24x02] [эфир от 30.03] (2024) HDTV 1080p

download Скачать торрент-файл   magnet Магнитная ссылка Размер: 5.45 GB Добавлен: 2024-03-30 17:00
Пиры будут получены из сети DHT
Последний сидер был замечен вчера в 22:52
Информация о фильме Название: Новая Битва экстрасенсов Год выхода: 2024 Жанр: Паранормальное шоу, документальный, мистика, экстрасенсы, сверхъестественное Режиссёр: Олег Чаурс Ведущий: Марат Башаров О фильме: В проекте «Битва экстрасенсов» участвуют люди, обладающими необычными способностями. Ведьмы и колдуны, эзотерики, маги, целители, гадатели и многие другие соревнуются за победу и звание лучшего экстрасенса сезона. «Битва экстрасенсов» – культовый проект и знаковое шоу в истории ТНТ. Каждый год люди, которые называют себя экстрасенсами, доказывают свои способности зрителям, проходя сложные испытания. Ведущие проекта наблюдают за участниками и чистотой прохождения заданий, которые усложняются из года в год. За время существования шоу в нём приняли участие несколько сотен людей с необычными способностями. В рамках проекта участники не только проходят испытания, но и помогают реальным людям справиться с их бедами, раскрывают загадки истории, проливают свет на резонансные события и преступления. Главный мистический проект страны запускает новый сезон! В 24-й «Битве экстрасенсов» – новые лица, новые герои, новые испытания и душераздирающие истории из жизни самых простых зрителей. Участники проекта, прошедшие трёхэтапный кастинг, готовы доказать, что они настоящие экстрасенсы и продемонстрировать свои необычные способности на многомиллионную аудиторию. Возможно, среди них есть достойные конкуренты Александру Шепсу или Влад Череватому, а возможно, и те, кто разделит пьедестал с лучшими из сильнейших. В каждом выпуске проекта участники проходят различные испытания, которые раскрывают их силу и способности. Экстрасенсов оценивают ведущие и сами герои. Каждую неделю проект покидает тот, кто справился с заданиями хуже всех. До финала дойдут только сильнейшие! Страна: Россия Студия: АО «ФМП Групп» по заказу АО «ТНТ-Телесеть» Продолжительность: 1 x ~ 01:55:00 Язык: Русский Премьера в Росcии: 30 марта 2024 года Цифровой релиз: 30 марта 2024 года Примечание: Без рекламы Возраст: 16+ Файл Формат: MKV Качество: HDTV 1080p Видео: MPEG-4 AVC, ~ 6770 Кбит/с, 1920x1080 Звук: AC3, 2 ch, 192 Кбит/с Субтитры: Отсутствуют Семпл
[+] Скриншоты
[+] MIОбщее Уникальный идентификатор : 128729931645720106131755768276769222187 (0x60D87BA6836823ACC798F14543C2AE2B) Полное имя : C:UsersAdminDesktopBitva.ekstrasensov.S24.E02.(30.03.2024).HDTV.1080p.mkv Формат : Matroska Версия формата : Version 4 Размер файла : 5,45 Гбайт Продолжительность : 1 ч. 54 м. Общий поток : 6 793 Кбит/сек Название фильма : Bitva.ekstrasensov.S24.E02.(30.03.2024).HDTV.1080p Дата кодирования : UTC 2024-03-30 11:34:16 Программа кодирования : mkvmerge v83.0 ('Circle Of Friends') 64-bit Библиотека кодирования : libebml v1.4.5 + libmatroska v1.7.1 Attachments : poster.jpg Видео Идентификатор : 1 Формат : AVC Формат/Информация : Advanced Video Codec Профиль формата : High@L4 Настройки формата : 3 Ref Frames Параметр CABAC формата : Нет Параметр RefFrames формата : 3 кадра Параметр GOP формата : M=3, N=25 Идентификатор кодека : V_MPEG4/ISO/AVC Продолжительность : 1 ч. 54 м. Битрейт : 6 772 Кбит/сек Ширина : 1 920 пикселей Высота : 1 080 пикселей Соотношение сторон : 16:9 Режим частоты кадров : Постоянный Частота кадров : 25,000 кадров/сек Цветовое пространство : YUV Субдискретизация насыщенности : 4:2:0 Битовая глубина : 8 бит Тип развёртки : Прогрессивная Бит/(Пиксели*Кадры) : 0.131 Размер потока : 5,30 Гбайт (97%) Библиотека кодирования : x264 core 160 r3000 Настройки программы : cabac=0 / ref=3 / deblock=1:0:0 / analyse=0x3:0x113 / me=hex / subme=4 / psy=1 / psy_rd=1.00:0.00 / mixed_ref=0 / me_range=16 / chroma_me=1 / trellis=1 / 8x8dct=1 / cqm=0 / deadzone=21,11 / fast_pskip=1 / chroma_qp_offset=0 / threads=16 / lookahead_threads=4 / sliced_threads=0 / nr=0 / decimate=1 / interlaced=0 / bluray_compat=0 / constrained_intra=0 / bframes=3 / b_pyramid=2 / b_adapt=1 / b_bias=0 / direct=1 / weightb=1 / open_gop=0 / weightp=1 / keyint=25 / keyint_min=2 / scenecut=0 / intra_refresh=0 / rc_lookahead=20 / rc=abr / mbtree=1 / bitrate=6772 / ratetol=1.0 / qcomp=0.60 / qpmin=0 / qpmax=69 / qpstep=4 / vbv_maxrate=18599 / vbv_bufsize=4688 / nal_hrd=none / filler=0 / ip_ratio=1.40 / aq=1:1.00 Default : Да Forced : Нет Аудио Идентификатор : 2 Формат : AC-3 Формат/Информация : Audio Coding 3 Коммерческое название : Dolby Digital Идентификатор кодека : A_AC3 Продолжительность : 1 ч. 54 м. Вид битрейта : Постоянный Битрейт : 192 Кбит/сек Каналы : 2 канала Channel layout : L R Частота : 48,0 КГц Частота кадров : 31,250 кадров/сек (1536 SPF) Метод сжатия : С потерями Размер потока : 158 Мбайт (3%) Заголовок : Язык : Russian Service kind : Complete Main Default : Да Forced : Нет

Всего файлов в раздаче: 1 
Bitva.ekstrasensov.S24.E02.(30.03.2024).HDTV.1080p.mkv5.45 GB

Похожие раздачи по запросу - Новая
2024-04-08 magnet Новая Битва экстрасенсов [24х01-03] (2024) WEBRip от Files-x 4.18 GB ↑ 0 ↓ 0
2024-04-08 magnet Новая Битва экстрасенсов [24х01-03] (2024) WEBRip 1080p от Files-x 10.81 GB ↑ 0 ↓ 0
2024-04-07 magnet Новая Битва экстрасенсов [24х01-03] (2024) WEBRip 720p от Files-x 4.77 GB ↑ 0 ↓ 0
2024-04-03 magnet Новая Битва экстрасенсов [24х01-02] (2024) WEBRip от Files-x 2.83 GB ↑ 0 ↓ 0
2024-04-03 magnet Новая Фабрика звезд [01-05] (2024) WEBRip от Files-x 6.37 GB ↑ 0 ↓ 0
2024-04-03 magnet Серия - «Новая боевая фантастика» изд-ва АСТ [3 книги] (2024) FB2 5.23 MB ↑ 0 ↓ 0
2024-04-03 magnet Новая Фабрика звезд [01-05] (2024) WEBRip 720p от Files-x 21.09 GB ↑ 0 ↓ 0

Комментарии


Зарегистрируйтесь чтобы добавить комментарий
Торрент клиент
byTorrent - программа для загрузки торрент-файлов.

Скачать byTorrent.exe (1,5 МБ)

Скачать byTorrent.zip (0,6 МБ)

Поддержи torrent.by
российских рублей
(300 российских рублей это 4$)

Обратная связь rss

End game ©