↑↓torrent.by
Поиск
Логин:  Регистрация
Пароль:

Айлин / Eileen (2023) BDRip-AVC от DoMiNo & селезень | P | TVShows

download Скачать торрент-файл   magnet Магнитная ссылка Размер: 1.46 GB Добавлен: 2024-03-30 17:00
Пиры будут получены из сети DHT
Последний сидер был замечен 2024-03-31 12:01
Информация о фильме Название: Айлин Оригинальное название: Eileen Год выпуска: 2023 Жанр: Триллер, драма, детектив Режиссер: Уильям Олдройд / William Oldroyd В ролях: Томасин Маккензи, Энн Хэтэуэй, Ши Уигхэм, Сэм Нивола, Шиван Фэллон Хоган, Тони Патано, Уильям Хилл, Оуэн Тиг, Питер МакРобби, Питер фон Берг О фильме: Девушка по имени Айлин уже некоторое время работает в колонии для несовершеннолетних. Она занимает должность секретарши и старается со всей ответственностью подходить к выполнению своих обязанностей. Совсем недавно у них в коллективе появилась новенькая сотрудница по имени Ребекка. Спустя какое-то время девушки начали сближаться и проводить вместе практически все свободное время. Но когда Эйлин понимает, что теперь ждет от отношения с Ребеккой чего-то большего, то начинает опасаться того, что может произойти в будущем. Ведь уже на протяжении довольно долгого времени она скрывает один секрет и делает все возможное для того, чтобы он не стал достоянием общественности. Иначе ее жизнь будет полностью разрушена. По мотивам одноимённого романа Отессы Мошфиг. Выпущено: США, Fifth Season, Film4, Likely Story, Lost Winds Entertainment, Omniscient Productions, Scott Rudin Productions Продолжительность: 01:37:20 Перевод: Профессиональный (многоголосый, закадровый) | TVShows Субтитры: Русские (Full -Stirlooo 18+), английские (Full, SDH) Файл Формат: Matroska Качество: BDRip-AVC Видео: 952x576 at 23.976 fps, x264@L4.1, ~1767 kbps Аудио: AC3, 6 ch, ~384 kbps - | Русский | Формат субтитров: softsub (SRT) ***Рип от: -=DoMiNo=-
[+] M/IGeneral Unique ID : 23323064888380310302986744024695794573 (0x118BDBE149386FE686333A9F2DF36B8D) Complete name : R:Eileen.2023.P.BDRip.x264.seleZen.mkv Format : Matroska Format version : Version 4 File size : 1.46 GiB Duration : 1 h 37 min Overall bit rate : 2 153 kb/s Frame rate : 23.976 FPS Movie name : Eileen.2023.MVO.BDRip.x264.seleZen Encoded date : 2024-03-30 07:02:01 UTC Writing application : mkvmerge v83.0 ('Circle Of Friends') 64-bit Writing library : libebml v1.4.5 + libmatroska v1.7.1 Cover : Yes Attachments : cover.jpg / small_cover.jpg Video ID : 1 Format : AVC Format/Info : Advanced Video Codec Format profile : High@L4.1 Format settings : CABAC / 14 Ref Frames Format settings, CABAC : Yes Format settings, Reference : 14 frames Codec ID : V_MPEG4/ISO/AVC Duration : 1 h 37 min Bit rate : 1 767 kb/s Width : 952 pixels Height : 576 pixels Display aspect ratio : 5:3 Frame rate mode : Constant Frame rate : 23.976 (24000/1001) FPS Color space : YUV Chroma subsampling : 4:2:0 Bit depth : 8 bits Scan type : Progressive Bits/(Pixel*Frame) : 0.134 Stream size : 1.20 GiB (82%) Title : -=DoMiNo=- Writing library : x264 core 164 r3156+57M dac90dd t_mod_New Encoding settings : cabac=1 / ref=14 / deblock=1:-2:-2 / analyse=0x3:0x133 / me=umh / subme=10 / psy=1 / fade_compensate=0.00 / psy_rd=1.05:0.00 / mixed_ref=1 / me_range=32 / chroma_me=1 / trellis=2 / 8x8dct=1 / cqm=0 / deadzone=21,11 / fast_pskip=0 / chroma_qp_offset=-2 / threads=18 / lookahead_threads=4 / sliced_threads=0 / nr=0 / decimate=0 / interlaced=0 / bluray_compat=0 / constrained_intra=0 / fgo=0 / bframes=12 / b_pyramid=2 / b_adapt=2 / b_bias=0 / direct=3 / weightb=1 / open_gop=0 / weightp=2 / keyint=250 / keyint_min=23 / scenecut=40 / intra_refresh=0 / rc_lookahead=60 / rc=2pass / mbtree=0 / bitrate=1767 / ratetol=1.0 / qcomp=0.70 / qpmin=0:0:0 / qpmax=69:69:69 / qpstep=4 / cplxblur=20.0 / qblur=0.5 / vbv_maxrate=50000 / vbv_bufsize=62500 / nal_hrd=none / filler=0 / ip_ratio=1.40 / pb_ratio=1.30 / aq=3:0.80 / aq-sensitivity=10.00 / aq-factor=1.00:1.00:1.00:1.00 / aq2=0 / aq3=0 Language : English Default : Yes Forced : No Audio ID : 2 Format : AC-3 Format/Info : Audio Coding 3 Commercial name : Dolby Digital Codec ID : A_AC3 Duration : 1 h 37 min Bit rate mode : Constant Bit rate : 384 kb/s Channel(s) : 6 channels Channel layout : L R C LFE Ls Rs Sampling rate : 48.0 kHz Frame rate : 31.250 FPS (1536 SPF) Compression mode : Lossy Stream size : 267 MiB (18%) Title : MVO -TVShows Language : Russian Service kind : Complete Main Default : Yes Forced : No Text #1 ID : 3 Format : UTF-8 Codec ID : S_TEXT/UTF8 Codec ID/Info : UTF-8 Plain Text Duration : 1 h 28 min Bit rate : 83 b/s Frame rate : 0.199 FPS Count of elements : 1052 Stream size : 53.6 KiB (0%) Title : Full
Релиз: Присоединяйся к: Кликай на баннеры.

Всего файлов в раздаче: 1 
Eileen.2023.P.BDRip.x264.seleZen.mkv1.46 GB

Похожие раздачи по запросу - Айлин
2024-03-31 magnet Айлин / Eileen (2023) BDRip от toxics & селезень | P | TVShows 1.46 GB ↑ 1 ↓ 0
2024-03-30 magnet Айлин / Eileen (2023) BDRip 1080p от ExKinoRay | TVShows 11.90 GB ↑ 0 ↓ 0
2024-03-30 magnet Айлин / Eileen (2023) BDRip от MegaPeer | P | TVShows 1.46 GB ↑ 0 ↓ 0
2024-03-30 magnet Айлин / Eileen (2023) BDRip 720p от DoMiNo & селезень | P | TVShows 3.59 GB ↑ 0 ↓ 0
2024-01-06 magnet Айлин / Eileen (2023) WEB-DLRip от New-Team | P | NewStudio 1.46 GB ↑ 0 ↓ 0

Комментарии


Зарегистрируйтесь чтобы добавить комментарий
Торрент клиент
byTorrent - программа для загрузки торрент-файлов.

Скачать byTorrent.exe (1,5 МБ)

Скачать byTorrent.zip (0,6 МБ)

Поддержи torrent.by
российских рублей
(300 российских рублей это 4$)

Обратная связь rss

End game ©