↑↓torrent.by
Поиск
Логин:  Регистрация
Пароль:

Выжившие: Пробуждение [S02 + Новогодняя] (2024) WEBRip-AVC от Generalfilm | КПК

download Скачать торрент-файл   magnet Магнитная ссылка Размер: 1.99 GB Добавлен: 2024-03-31 05:00
Пиры будут получены из сети DHT
Последний сидер был замечен 2024-04-01 22:31
Информация о фильме Оригинальное название: Выжившие: Пробуждение Год выхода: 2024 Жанр: Драма, триллер, фантастика Режиссер: Андрей Прошкин В ролях: Алексей Филимонов, Артур Смольянинов, Дарья Савельева, Валентина Лукащук, Алексей Розин, Анна Слю, Глеб Пускепалис, Дарья Екамасова, Виталия Корниенко, Яна Сексте, Константин Фисенко, Филипп Авдеев, Наталья Бардо, Анатолий Попов (II), Сергей Бондарчук мл. О сериале: Города опустели, заводы остановились, оставшиеся в живых люди объединяются в небольшие поселения. Они пасут овец, гонят спирт, чтобы откупиться от местных бандитов, и постоянно борются со сном. Всех, кто проспит дольше двух часов, ждет летаргия и смерть. Жители одного из поселков узнают, что существует город, где нашли способ пробуждать от сонной болезни. Они готовы бросить все ради смутной надежды на счастливое будущее. Но в городе не рады гостям. Оказывается, что после пробуждения люди меняются — жены перестают любить своих мужей, а матери ничего не чувствуют к своим детям. Общество раскалывается на неспящих и избранных — пробужденных. Страна: Россия Студия: Кинокомпания "Look Film", "Okko Studios" Продолжительность: 10 х ~ 00:57:00 Перевод: Не требуется Файл Формат: MP4 Качество: WEBRip-AVC Видео: MPEG-4 AVC (x264), 640x272, ~ 500 kbps, 25.000 fps Аудио: AAC LC, 48.0 KHz, 2 ch, 128 Kbps Субтитры: Нет Внимание! Присутствует ненормативная лексика
[+] Скриншоты
[+] MIComplete name : D:киноVyzhivshie.S02.2024.WEBRip-AVC.KPK.GFVyzhivshie.s02e01.2024.WEBRip-AVC.KPK.GF.mp4 Format : MPEG-4 Codec ID : M4V (isom/iso2/avc1) File size : 260 MiB Duration : 57mn 25s Overall bit rate mode : Variable Overall bit rate : 634 Kbps Writing application : Lavf53.19.0 Video ID : 1 Format : AVC Format/Info : Advanced Video Codec Format profile : High@L4.1 Format settings, CABAC : Yes Format settings, ReFrames : 8 frames Codec ID : avc1 Codec ID/Info : Advanced Video Coding Duration : 57mn 25s Bit rate : 500 Kbps Width : 640 pixels Height : 272 pixels Display aspect ratio : 2.35:1 Frame rate mode : Constant Frame rate : 25.000 fps Color space : YUV Chroma subsampling : 4:2:0 Bit depth : 8 bits Scan type : Progressive Bits/(Pixel*Frame) : 0.115 Stream size : 205 MiB (79%) Writing library : x264 core 146 r2538 121396c Encoding settings : cabac=1 / ref=8 / deblock=1:-1:-1 / analyse=0x3:0x133 / me=umh / subme=10 / psy=1 / psy_rd=1.00:0.00 / mixed_ref=1 / me_range=24 / chroma_me=1 / trellis=2 / 8x8dct=1 / cqm=0 / deadzone=21,11 / fast_pskip=1 / chroma_qp_offset=-2 / threads=3 / lookahead_threads=1 / sliced_threads=0 / nr=0 / decimate=1 / interlaced=0 / bluray_compat=0 / constrained_intra=0 / bframes=8 / b_pyramid=2 / b_adapt=2 / b_bias=0 / direct=3 / weightb=1 / open_gop=0 / weightp=2 / keyint=250 / keyint_min=126 / scenecut=40 / intra_refresh=0 / rc_lookahead=40 / rc=2pass / mbtree=1 / bitrate=500 / ratetol=1.0 / qcomp=0.60 / qpmin=0 / qpmax=69 / qpstep=4 / cplxblur=20.0 / qblur=0.5 / ip_ratio=1.40 / aq=1:1.00 Menus : 3 Audio ID : 2 Format : AAC Format/Info : Advanced Audio Codec Format profile : LC Codec ID : 40 Duration : 57mn 25s Bit rate mode : Variable Bit rate : 128 Kbps Channel(s) : 2 channels Channel positions : Front: L R Sampling rate : 48.0 KHz Frame rate : 46.875 fps (1024 spf) Compression mode : Lossy Stream size : 52.6 MiB (20%) Default : Yes Alternate group : 1 Menus : 3
Релиз от:

Всего файлов в раздаче: 10 
Vyzhivshie.s02e00.Smertel'nyi.Nomer.2023.WEBDL-Rip-AVC.KPK.GF.mp4136.63 MB
Vyzhivshie.s02e01.2024.WEBRip-AVC.KPK.GF.mp4260.40 MB
Vyzhivshie.s02e02.2024.WEBRip-AVC.KPK.GF.mp4207.68 MB
Vyzhivshie.s02e03.2024.WEBRip-AVC.KPK.GF.mp4210.80 MB
Vyzhivshie.s02e04.2024.WEBRip-AVC.KPK.GF.mp4215.78 MB
Vyzhivshie.s02e05.2024.WEBRip-AVC.KPK.GF.mp4200.48 MB
Vyzhivshie.s02e06.2024.WEBRip-AVC.KPK.GF.mp4203.02 MB
Vyzhivshie.s02e07.2024.WEBRip-AVC.KPK.GF.mp4198.02 MB
Vyzhivshie.s02e08.2024.WEBRip-AVC.KPK.GF.mp4195.40 MB
Vyzhivshie.s02e09.2024.WEBRip-AVC.KPK.GF.mp4213.50 MB

Похожие раздачи по запросу - Выжившие
Вчера magnet Выжившие: Круги [S02] (2024) WEB-DLRip-AVC от Generalfilm | КПК 202.14 MB ↑ 0 ↓ 0
2024-04-09 magnet Ходячие мертвецы: Выжившие / The Walking Dead: The Ones Who Live [S01] (2024) WEB-DLRip-AVC | КПК | Novamedia 1.36 GB ↑ 0 ↓ 0
2024-04-03 magnet Ходячие мертвецы: Выжившие / The Walking Dead: The Ones Who Live [S01] (2024) WEB-DL 1080p от ExKinoRay | Novamedia 19.27 GB ↑ 1 ↓ 4
2024-04-02 magnet Ходячие мертвецы: Выжившие / The Walking Dead: The Ones Who Live [S01] (2024) WEB-DL 1080p от Jaskier | P 22.74 GB ↑ 0 ↓ 0
2024-04-02 magnet Выжившие: Допрос [01-07 из 07] (2024) WEBRip 1080p от ExKinoRay 2.25 GB ↑ 0 ↓ 0
2024-04-02 magnet Ходячие мертвецы: Выжившие / The Walking Dead: The Ones Who Live [S01] (2024) WEB-DL 1080p от NewComers | P 22.90 GB ↑ 0 ↓ 2
2024-04-02 magnet Ходячие мертвецы: Выжившие / The Walking Dead: The Ones Who Live [S01] (2024) WEB-DLRip 1080p | NewComers 1К12.22 GB ↑ 0 ↓ 0

Комментарии

amatrz
Ерунду навылажуют,еще и не раздают.


Зарегистрируйтесь чтобы добавить комментарий
Торрент клиент
byTorrent - программа для загрузки торрент-файлов.

Скачать byTorrent.exe (1,5 МБ)

Скачать byTorrent.zip (0,6 МБ)

Поддержи torrent.by
российских рублей
(300 российских рублей это 4$)

Обратная связь rss

End game ©