↑↓torrent.by
Поиск
Логин:  Регистрация
Пароль:

Вистинг / Уистинг / Wisting [S03] (2022) WEB-DLRip-AVC от DoMiNo | Кубик в Кубе

download Скачать торрент-файл   magnet Магнитная ссылка Размер: 2.70 GB Добавлен: 2024-03-31 05:00
Пиры будут получены из сети DHT
Последний сидер был замечен 2024-04-03 20:47
Информация о фильме Название: Вистинг (Уистинг) Оригинальное название: Wisting Год выхода: 2022 Жанр: Криминал, детектив Режиссер: Тригве Аллистер Дайсен, Катарина Лаунинг В ролях: Свен Нордин, Кэрри-Энн Мосс, Мэдс Оусдаль, Гард Б. Эйдсвольд, Ларс Берге, Ульрикке Хансен Дёвиген, Ирина Эйдсвольд Тойен, Хьерсти Сандал, Хайди Голдман, Даниэль Фрикстад О фильме: В центре сюжета сериала, основанного на детективных романах Йорна Хорста, оказывается Уильям Вистинг — дотошный и честолюбивый полицейский, который занимается охотой на самых известных преступников Норвегии. Однажды во время расследования убийства, совершенного на рождественской ярмарке, детектив получает доказательства того, что в преступлении замешан известный американский серийный убийца. Для Вистинга становится делом чести арестовать неуловимого психопата, однако масштабные розыскные мероприятия не приносят результат... Страна: Норвегия Студия: Cinenord Drama, Good Company Films, Ripple World Pictures Продолжительность: 4 x ~00:44:00 Перевод: Профессиональный двухголосый (Кубик в Кубе) Субтитры: Русские, английские, литовские, латышские, эстонские, польские Файл Формат: Matroska Качество: WEB-DLRip-AVC Видео: 1024x426 at 25.000 fps, x264@L4.1, ~1700 kbps Аудио: AC3, 6 ch, ~448 kbps - | Русский | Формат субтитров: softsub (SRT) ***Релиз от: -=DoMiNo=-
[+] M/Ix264 : frame I:525 Avg QP:15.96 size: 55063 x264 : frame P:12931 Avg QP:17.76 size: 19187 x264 : frame B:53967 Avg QP:19.16 size: 5182 General Unique ID : 176179903588001224467190986543092054090 (0x848B03E39E70360E0C646D352A4DB84A) Complete name : E:СмотретьWisting.S03.WEB-DLRip.x264Wisting.S03.E01.mkv Format : Matroska Format version : Version 4 File size : 691 MiB Duration : 44 min 42 s Overall bit rate : 2 159 kb/s Encoded date : UTC 2022-04-12 08:36:40 Writing application : mkvmerge v63.0.0 ('Everything') 64-bit Writing library : libebml v1.4.2 + libmatroska v1.6.4 Cover : Yes Attachments : cover.jpg / cover 2.jpg Video ID : 1 Format : AVC Format/Info : Advanced Video Codec Format profile : High@L4.1 Format settings : CABAC / 10 Ref Frames Format settings, CABAC : Yes Format settings, Reference : 10 frames Codec ID : V_MPEG4/ISO/AVC Duration : 44 min 42 s Bit rate : 1 709 kb/s Width : 1 024 pixels Height : 426 pixels Display aspect ratio : 2.40:1 Frame rate mode : Constant Frame rate : 25.000 FPS Color space : YUV Chroma subsampling : 4:2:0 Bit depth : 8 bits Scan type : Progressive Bits/(Pixel*Frame) : 0.157 Stream size : 546 MiB (79%) Title : -=DoMiNo=- Writing library : x264 core 164 r3075+55M 97d28bb t_mod_New Encoding settings : cabac=1 / ref=10 / deblock=1:-3:-2 / analyse=0x3:0x133 / me=umh / subme=10 / psy=1 / fade_compensate=0.00 / psy_rd=1.05:0.15 / mixed_ref=1 / me_range=32 / chroma_me=1 / trellis=2 / 8x8dct=1 / cqm=0 / deadzone=21,11 / fast_pskip=0 / chroma_qp_offset=-3 / threads=17 / lookahead_threads=3 / sliced_threads=0 / nr=0 / decimate=0 / interlaced=0 / bluray_compat=0 / constrained_intra=0 / fgo=0 / bframes=10 / b_pyramid=2 / b_adapt=2 / b_bias=0 / direct=3 / weightb=1 / open_gop=0 / weightp=2 / keyint=250 / keyint_min=25 / scenecut=40 / intra_refresh=0 / rc_lookahead=60 / rc=crf / mbtree=0 / crf=19.0000 / qcomp=0.65 / qpmin=0:0:0 / qpmax=69:69:69 / qpstep=4 / vbv_maxrate=50000 / vbv_bufsize=62500 / crf_max=0.0 / nal_hrd=none / filler=0 / ip_ratio=1.30 / pb_ratio=1.20 / aq=3:0.80 / aq-sensitivity=10.00 / aq-factor=1.00:1.00:1.00 / aq2=0 / aq3=0 Language : English Default : Yes Forced : No Color range : Limited Color primaries : BT.709 Transfer characteristics : BT.709 Audio ID : 2 Format : AC-3 Format/Info : Audio Coding 3 Commercial name : Dolby Digital Codec ID : A_AC3 Duration : 44 min 42 s Bit rate mode : Constant Bit rate : 448 kb/s Channel(s) : 6 channels Channel layout : L R C LFE Ls Rs Sampling rate : 48.0 kHz Frame rate : 31.250 FPS (1536 SPF) Compression mode : Lossy Stream size : 143 MiB (21%) Title : DVO_Кубик в Кубе Language : Russian Service kind : Complete Main Default : Yes Forced : No Text #1 ID : 3 Format : UTF-8 Codec ID : S_TEXT/UTF8 Codec ID/Info : UTF-8 Plain Text Duration : 43 min 7 s Bit rate : 89 b/s Count of elements : 529 Stream size : 28.2 KiB (0%) Language : Russian Default : No Forced : No Text #2 ID : 4 Format : UTF-8 Codec ID : S_TEXT/UTF8 Codec ID/Info : UTF-8 Plain Text Duration : 43 min 13 s Bit rate : 51 b/s Count of elements : 427 Stream size : 16.4 KiB (0%) Language : English Default : No Forced : No Text #3 ID : 5 Format : UTF-8 Codec ID : S_TEXT/UTF8 Codec ID/Info : UTF-8 Plain Text Duration : 43 min 11 s Bit rate : 49 b/s Count of elements : 425 Stream size : 15.5 KiB (0%) Language : Estonian Default : No Forced : No Text #4 ID : 6 Format : UTF-8 Codec ID : S_TEXT/UTF8 Codec ID/Info : UTF-8 Plain Text Duration : 43 min 13 s Bit rate : 50 b/s Count of elements : 426 Stream size : 15.9 KiB (0%) Language : Lithuanian Default : No Forced : No Text #5 ID : 7 Format : UTF-8 Codec ID : S_TEXT/UTF8 Codec ID/Info : UTF-8 Plain Text Duration : 43 min 13 s Bit rate : 49 b/s Count of elements : 426 Stream size : 15.8 KiB (0%) Language : Latvian Default : No Forced : No Text #6 ID : 8 Format : UTF-8 Codec ID : S_TEXT/UTF8 Codec ID/Info : UTF-8 Plain Text Duration : 43 min 13 s Bit rate : 48 b/s Count of elements : 426 Stream size : 15.3 KiB (0%) Language : Polish Default : No Forced : No
[+] Скриншоты

Всего файлов в раздаче: 4 
Wisting.S03.E01.mkv690.53 MB
Wisting.S03.E02.mkv675.80 MB
Wisting.S03.E03.mkv693.67 MB
Wisting.S03.E04.mkv702.35 MB

Похожие раздачи по запросу - Вистинг
2024-03-31 magnet Вистинг / Уистинг / Wisting [S04] (2024) WEB-DLRip-AVC от DoMiNo & селезень | HDrezka Studio 1.94 GB ↑ 1 ↓ 2
2024-03-30 magnet Вистинг / Уистинг / Wisting [S02] (2021) WEB-DLRip-AVC от DoMiNo | Кубик в Кубе 1К2.22 GB ↑ 0 ↓ 0
2024-03-29 magnet Вистинг / Уистинг / Wisting [S01] (2019) WEB-DLRip-AVC от DoMiNo | Кубик в Кубе 6.34 GB ↑ 0 ↓ 2

Комментарии


Зарегистрируйтесь чтобы добавить комментарий
Торрент клиент
byTorrent - программа для загрузки торрент-файлов.

Скачать byTorrent.exe (1,5 МБ)

Скачать byTorrent.zip (0,6 МБ)

Поддержи torrent.by
российских рублей
(300 российских рублей это 4$)

Обратная связь rss

End game ©