↑↓torrent.by
Поиск
Логин:  Регистрация
Пароль:

НЕлюбовь [S01] (2015) WEBRip 720p

download Скачать торрент-файл   magnet Магнитная ссылка Размер: 4.58 GB Добавлен: 2024-03-31 05:00
Пиры будут получены из сети DHT
Последний сидер был замечен 2024-03-31 05:00
Информация о сериале Название: НЕлюбовь Год выхода: 2015 Жанр: Мелодрама Режиссер: Яна Романенко В ролях: Антон Макарский, Ирина Иванова, Анастасия Куимова, Людмила Михненкова, Олег Захаров, Анастасия Александрова, Анна Киреева, Сергей Даниленко, Юлия Соболева, Евгения Иванова О сериале: Тамара всегда считала старшую дочь Динку главной ошибкой в своей жизни, потому что Динка родилась в результате изнасилования. Однако отношение к нелюбимой дочери меняется в лучшую сторону, когда в жизни Тамары появляется Петр, вдовец с сыном Сашей. Но Петр погибает в пожаре. По одной из версий причиной возгорания дома стала игра Дины со спичками. Ненависть Тамары к дочери вспыхивает вновь. Проходят годы. Тамара фанатично любит младшую дочь Люсю, рожденную от Петра, и обожает пасынка Сашу, который все больше становится похож на отца. Узнав, что между ним и Диной завязываются романтические отношения, Тамара делает все, чтобы разлучить их… Страна: Россия Студия: "Форс Групп", Кинокомпания "Атмосфера" Продолжительность: ~00:44:00 серия Файл Кодек: h.264 Качество: WEBRip 720p Видео: AVC, 1280x720, ~3500 kbps Звук: AAC, 2 ch, 192 Kbps Субтитры: Отсутствуют
[+] MediaInfo:General ID: 1 (0x1) Complete name: НЕлюбовь S01_E03 2015 720p.ts Format: MPEG-TS File size: 1.15 GiB Duration: 44 min 4 s Overall bit rate mode: Variable Overall bit rate: 3 737 kb/s Video ID: 256 (0x100) Menu ID: 1 (0x1) Format: AVC Format/Info: Advanced Video Codec Format profile: High@L4.1 Format settings: CABAC / 5 Ref Frames Format settings, CABAC: Yes Format settings, Reference: 5 frames Codec ID: 27 Duration: 44 min 5 s Bit rate: 3 500 kb/s Width: 1 280 pixels Height: 720 pixels Display aspect ratio: 16:9 Frame rate mode: Constant Frame rate: 25.000 FPS Color space: YUV Chroma subsampling: 4:2:0 Bit depth: 8 bits Scan type: Progressive Bits/(Pixel*Frame): 0.152 Stream size: 1.15 GiB (96%) Writing library: x264 core 148 Encoding settings: cabac=1 / ref=5 / deblock=1:0:0 / analyse=0x3:0x113 / me=hex / subme=8 / psy=1 / psy_rd=1.00:0.00 / mixed_ref=1 / me_range=16 / chroma_me=1 / trellis=2 / 8x8dct=1 / cqm=0 / deadzone=21, 11 / fast_pskip=1 / chroma_qp_offset=-2 / threads=1 / lookahead_threads=1 / sliced_threads=0 / nr=0 / decimate=1 / interlaced=0 / bluray_compat=0 / constrained_intra=0 / bframes=3 / b_pyramid=2 / b_adapt=1 / b_bias=0 / direct=3 / weightb=1 / open_gop=0 / weightp=2 / keyint=250 / keyint_min=25 / scenecut=0 / intra_refresh=0 / rc_lookahead=50 / rc=abr / mbtree=1 / bitrate=3500 / ratetol=1.0 / qcomp=0.60 / qpmin=0 / qpmax=69 / qpstep=4 / ip_ratio=1.40 / aq=1:1.00 Audio ID: 2 Format: AAC LC Format/Info: Advanced Audio Codec Low Complexity Codec ID: A_AAC-2 Duration: 44 min 5 s Bit rate: 192 kb/s Channel(s): 2 channels Channel layout: L R Sampling rate: 44.1 kHz Frame rate: 43.066 FPS (1024 SPF) Compression mode: Lossy Delay relative to video: -80 ms Stream size: 40.4 MiB (4%) Default: Yes Forced: No
[+] Скриншоты

Всего файлов в раздаче: 4 
НЕлюбовь S01_E01 2015 720p.ts1.14 GB
НЕлюбовь S01_E02 2015 720p.ts1.15 GB
НЕлюбовь S01_E03 2015 720p.ts1.15 GB
НЕлюбовь S04_E01 2015 720p.ts1.14 GB

Комментарии


Зарегистрируйтесь чтобы добавить комментарий
Торрент клиент
byTorrent - программа для загрузки торрент-файлов.

Скачать byTorrent.exe (1,5 МБ)

Скачать byTorrent.zip (0,6 МБ)

Поддержи torrent.by
российских рублей
(300 российских рублей это 4$)

Обратная связь rss

End game ©