↑↓torrent.by
Поиск
Логин:  Регистрация
Пароль:

Бременские музыканты (2023) WEB-DLRip-AVC от DoMiNo

download Скачать торрент-файл   magnet Магнитная ссылка Размер: 745.96 MB Раздают: 0 Качают: 1 Добавлен: 2024-03-31 05:00
Пиры будут получены из сети DHT
Последний сидер был замечен вчера в 06:20
Информация о фильме Название: Бременские музыканты Год выхода: 2023 Премьера в России: 1 января 2024 Жанр: приключения, семейный, фэнтези, комедия Режиссер: Алексей Нужный В ролях: Тихон Жизневский, Валентина Ляпина, Роман Курцын, Аскар Нигамедзянов, Ирина Горбачёва, Дмитрий Дюжев, Сергей Бурунов, Мария Аронова, Константин Хабенский, Юлия Пересильд, Мирон Проворов, Оксана Суркова, Павел Стонт, Мария Жидкова, Богдан Кияшко, Тереза Диуро, Геннадий Искорцев, Михаил Селиванов, Стефан Петров, Николай Самсонов, Анна Крамер, Антон Коновалов, Санта Нужная, Дея Сиберт, Александра Попова, Степан Самойленко, Никита Никитин, Сергей Федоров, Игорь Царегородцев, Артур Иванов, Елизавета Столбова, Илья Варанкин, Николай Федькин, Николай Евстафьев, Сергей Бурбон, Гарик Айвазов, Михаил Коновалов, Михаил Орлов, Алексей Проценко О фильме: Трубадур и его друзья-самозванцы — Пес, Кошка, Осел и самовлюбленный Петух — объединились, чтобы совершить подвиг. Прежде всего они должны рассмешить дочь Короля, но встреча с Принцессой грозит опасным приключением. Против Трубадура и его друзей — коварные враги, интриги и ловушки, но за любовь надо сражаться. А тут еще Принцесса сбежала из дворца. В одном клубке — преступные схемы Разбойников, интриги Сыщика, капризы и тайны королевской семейки, но веселые музыканты с неутомимым Трубадуром заставят всех плясать под свою дудку. Страна: Россия Студия: Телеканал «Россия 1», Союзмультфильм, Студия Тритэ Продолжительность: 01:55:40 Перевод: Не требуется Субтитры: Русские (Full (Enigma)) Файл Формат: Matroska Качество: WEB-DLRip-AVC Видео: 720x302 at 24.000 fps, x264@L4.1, ~805 kbps Аудио: AAC, 2 ch, ~96 kbps - | Русский | Формат субтитров: softsub (SRT) ***Рип от: -=DoMiNo=-
[+] M/IGeneral Unique ID : 213928863196979269216110841780448530973 (0xA0F1334ACAA22B965E8ECF215368121D) Complete name : D:Бременские музыканты.2023.WEB-DLRip.x264..mkv Format : Matroska Format version : Version 4 File size : 746 MiB Duration : 1 h 55 min Overall bit rate : 902 kb/s Frame rate : 24.000 FPS Movie name : Бременские музыканты.2023.WEB-DLRip.x264. Encoded date : 2024-03-30 18:46:02 UTC Writing application : mkvmerge v83.0 ('Circle Of Friends') 64-bit Writing library : libebml v1.4.5 + libmatroska v1.7.1 Cover : Yes Attachments : cover.jpg / small_cover.jpg Video ID : 1 Format : AVC Format/Info : Advanced Video Codec Format profile : High@L4.1 Format settings : CABAC / 14 Ref Frames Format settings, CABAC : Yes Format settings, Reference : 14 frames Codec ID : V_MPEG4/ISO/AVC Duration : 1 h 55 min Bit rate : 805 kb/s Width : 720 pixels Height : 302 pixels Display aspect ratio : 2.40:1 Frame rate mode : Constant Frame rate : 24.000 FPS Color space : YUV Chroma subsampling : 4:2:0 Bit depth : 8 bits Scan type : Progressive Bits/(Pixel*Frame) : 0.154 Stream size : 666 MiB (89%) Title : -=DoMiNo=- Writing library : x264 core 164 r3190 -DoMiNo Encoding settings : cabac=1 / ref=14 / deblock=1:0:0 / analyse=0x3:0x133 / me=umh / subme=10 / psy=1 / psy_rd=1.00:0.00 / mixed_ref=1 / me_range=32 / chroma_me=1 / trellis=2 / 8x8dct=1 / cqm=0 / deadzone=21,11 / fast_pskip=0 / chroma_qp_offset=-2 / threads=9 / lookahead_threads=2 / sliced_threads=0 / nr=0 / decimate=0 / interlaced=0 / bluray_compat=0 / constrained_intra=0 / bframes=10 / b_pyramid=2 / b_adapt=2 / b_bias=0 / direct=3 / weightb=1 / open_gop=0 / weightp=2 / keyint=240 / keyint_min=24 / scenecut=40 / intra_refresh=0 / rc_lookahead=60 / rc=2pass / mbtree=0 / bitrate=805 / ratetol=1.0 / qcomp=0.80 / qpmin=0 / qpmax=69 / qpstep=4 / cplxblur=20.0 / qblur=0.5 / vbv_maxrate=50000 / vbv_bufsize=62500 / nal_hrd=none / filler=0 / ip_ratio=1.20 / pb_ratio=1.30 / aq=1:1.00 Language : Russian Default : Yes Forced : No Color range : Limited Color primaries : BT.709 Transfer characteristics : BT.709 Matrix coefficients : BT.709 Audio ID : 2 Format : AAC LC SBR Format/Info : Advanced Audio Codec Low Complexity with Spectral Band Replication Commercial name : HE-AAC Format settings : Explicit Codec ID : A_AAC-2 Duration : 1 h 55 min Bit rate : 96.0 kb/s Channel(s) : 2 channels Channel layout : L R Sampling rate : 48.0 kHz Frame rate : 23.438 FPS (2048 SPF) Compression mode : Lossy Stream size : 78.3 MiB (11%) Language : Russian Default : Yes Forced : No Text ID : 3 Format : UTF-8 Codec ID : S_TEXT/UTF8 Codec ID/Info : UTF-8 Plain Text Duration : 1 h 54 min Bit rate : 63 b/s Frame rate : 0.161 FPS Count of elements : 1104 Stream size : 53.6 KiB (0%) Title : Full (Enigma) Language : Russian Default : No Forced : No Menu 00:00:00.000 : en:Chapter 01 00:05:50.000 : en:Chapter 02 00:11:40.000 : en:Chapter 03 00:17:30.000 : en:Chapter 04 00:23:20.000 : en:Chapter 05 00:29:10.000 : en:Chapter 06 00:35:00.000 : en:Chapter 07 00:40:50.000 : en:Chapter 08 00:46:40.000 : en:Chapter 09 00:52:30.000 : en:Chapter 10 00:58:20.000 : en:Chapter 11 01:04:10.000 : en:Chapter 12 01:10:00.000 : en:Chapter 13 01:15:50.000 : en:Chapter 14 01:21:40.000 : en:Chapter 15 01:27:30.000 : en:Chapter 16 01:33:20.000 : en:Chapter 17 01:39:10.000 : en:Chapter 18 01:45:00.000 : en:Chapter 19 01:50:50.000 : en:Chapter 20

Всего файлов в раздаче: 1 
Бременские музыканты.2023.WEB-DLRip.x264.[-=DoMiNo=-].mkv745.96 MB

Похожие раздачи по запросу - Бременские
2024-03-29 magnet Бременские музыканты (2023) WEB-DLRip от ExKinoRay 749.15 MB ↑ 0 ↓ 0
2024-03-28 magnet Бременские музыканты (2023) WEB-DLRip-AVC от ExKinoRay 2.04 GB ↑ 0 ↓ 0
2024-03-26 magnet Бременские музыканты (2023) WEB-DLRip от Generalfilm | КПК 439.98 MB ↑ 0 ↓ 0
2024-03-26 magnet Бременские музыканты [2023, приключения, семейный, фэнтези, комедия, WEB-DLRip-AVC] 1.46 GB ↑ 5 ↓ 0
2024-03-26 magnet Бременские музыканты (2023) WEB-DLRip-AVC от MegaPeer 1.83 GB ↑ 0 ↓ 0
2024-03-26 magnet Бременские музыканты (2023) WEB-DLRip-AVC от ExKinoRay 1.46 GB ↑ 0 ↓ 0
2024-03-26 magnet Бременские музыканты (2023) WEB-DLRip 720p от ExKinoRay 3.14 GB ↑ 0 ↓ 2

Комментарии


Зарегистрируйтесь чтобы добавить комментарий
Торрент клиент
byTorrent - программа для загрузки торрент-файлов.

Скачать byTorrent.exe (1,5 МБ)

Скачать byTorrent.zip (0,6 МБ)

Поддержи torrent.by
российских рублей
(300 российских рублей это 4$)

Обратная связь rss

End game ©