↑↓torrent.by
Поиск
Логин:  Регистрация
Пароль:

Корабль призраков / Haunting of the Queen Mary (2023) BDRemux 1080p | D

download Скачать торрент-файл   magnet Магнитная ссылка Размер: 30.71 GB Раздают: 1 Качают: 0 Добавлен: 2024-03-31 05:00
Пиры будут получены из сети DHT
Последний сидер был замечен сегодня в 14:31
Информация о фильме Название: Корабль призраков Оригинальное название: Haunting of the Queen Mary Год выхода: 2023 Жанр: Ужасы, драма Режиссер: Гари Шор В ролях: Элис Ив, Джоэль Фрай, Нелл Хадсон, Ленни Раш, Уильям Шокли, Тим Дауни, Энгус Райт, Джим Пиддок, Джоэль Коисси, Марк Силверман, Альфредо Таварес О фильме: О трансатлантическом лайнере «Королева Мэри» ходит множество легенд, и увлечённый историями о призраках маленький Лукас с мамой поднимается на борт стоящего в Лонг-Бич судна, которое теперь служит отелем и развлечением для туристов. Пока мама занята своими делами, ребёнок отправляется на экскурсию и пропадает. Чтобы спасти сына, родителям предстоит разобраться в зловещих тайнах лайнера, а тем временем жуткие события 1938 года переплетаются с настоящим. Страна: США, Великобритания Студия: BCP Asset Management, Creativity Capital, Fulwell 73 Продолжительность: 02:04:55 Перевод: Дублированный | Мосфильм-Мастер Файл Формат: MKV Качество: BDRemux 1080p Видео: MPEG-4 AVC, 1920x1080 (16:9), 23.976 fps, 32.9 Mbps Аудио 1: Russian: E-AC3 Dolby Digital, 5.1 ch, 48 kHz, 384 kbps Аудио 2: English: DTS-HD MA Audio, 5.1 ch, 48 kHz, 1922 kbps Субтитры: Русские (Forced, Full), английские
[+] Скриншоты
[+] Инфо-файлGeneral Unique ID : 30816673380698268640474726495541733724 (0x172F134DBE749379376EA066A7BB295C) Complete name : Haunting.of.the.Queen.Mary.2023.BDRemux.1080p.pk.mkv Format : Matroska Format version : Version 4 File size : 30.7 GiB Duration : 2 h 4 min Overall bit rate mode : Variable Overall bit rate : 35.2 Mb/s Frame rate : 23.976 FPS Movie name : Haunting of the Queen Mary 2023 BDRemux 1080p pk Encoded date : 2024-03-30 08:48:51 UTC Writing application : mkvmerge v83.0 ('Circle Of Friends') 64-bit Writing library : libebml v1.4.5 + libmatroska v1.7.1 Cover : Yes Attachments : cover.jpg / cover.jpg / small_cover.jpg Video ID : 1 ID in the original source medium : 4113 (0x1011) Format : AVC Format/Info : Advanced Video Codec Format profile : High@L4.1 Format settings : CABAC / 3 Ref Frames Format settings, CABAC : Yes Format settings, Reference frames : 3 frames Format settings, Slice count : 4 slices per frame Codec ID : V_MPEG4/ISO/AVC Duration : 2 h 4 min Bit rate mode : Variable Bit rate : 32.9 Mb/s Maximum bit rate : 35.0 Mb/s Width : 1 920 pixels Height : 1 080 pixels Display aspect ratio : 16:9 Frame rate mode : Constant Frame rate : 23.976 (24000/1001) FPS Color space : YUV Chroma subsampling : 4:2:0 Bit depth : 8 bits Scan type : Progressive Bits/(Pixel*Frame) : 0.661 Stream size : 28.7 GiB (93%) Language : English Default : Yes Forced : No Original source medium : Blu-ray Audio #1 ID : 2 Format : E-AC-3 Format/Info : Enhanced AC-3 Commercial name : Dolby Digital Plus Codec ID : A_EAC3 Duration : 2 h 4 min Bit rate mode : Constant Bit rate : 384 kb/s Channel(s) : 6 channels Channel layout : L R C LFE Ls Rs Sampling rate : 48.0 kHz Frame rate : 31.250 FPS (1536 SPF) Compression mode : Lossy Stream size : 343 MiB (1%) Title : Russian Dub Мосфильм-Мастер Language : Russian Service kind : Complete Main Default : Yes Forced : No Audio #2 ID : 3 ID in the original source medium : 4353 (0x1101) Format : DTS XLL Format/Info : Digital Theater Systems Commercial name : DTS-HD Master Audio Codec ID : A_DTS Duration : 2 h 4 min Bit rate mode : Variable Bit rate : 1 922 kb/s Channel(s) : 6 channels Channel layout : C L R Ls Rs LFE Sampling rate : 48.0 kHz Frame rate : 93.750 FPS (512 SPF) Bit depth : 16 bits Compression mode : Lossless Stream size : 1.68 GiB (5%) Title : English Original Language : English Default : No Forced : No Original source medium : Blu-ray Text #1 ID : 4 Format : UTF-8 Codec ID : S_TEXT/UTF8 Codec ID/Info : UTF-8 Plain Text Duration : 1 h 54 min Bit rate : 1 b/s Frame rate : 0.004 FPS Count of elements : 25 Stream size : 1.16 KiB (0%) Title : Russian forced Language : Russian Default : Yes Forced : No Text #2 ID : 5 Format : UTF-8 Codec ID : S_TEXT/UTF8 Codec ID/Info : UTF-8 Plain Text Duration : 1 h 55 min Bit rate : 78 b/s Frame rate : 0.204 FPS Count of elements : 1416 Stream size : 66.3 KiB (0%) Title : Russian full Language : Russian Default : No Forced : No Text #3 ID : 6 Format : UTF-8 Codec ID : S_TEXT/UTF8 Codec ID/Info : UTF-8 Plain Text Duration : 1 h 54 min Bit rate : 48 b/s Frame rate : 0.194 FPS Count of elements : 1335 Stream size : 40.4 KiB (0%) Title : English full Language : English Default : No Forced : No Text #4 ID : 7 Format : UTF-8 Codec ID : S_TEXT/UTF8 Codec ID/Info : UTF-8 Plain Text Duration : 1 h 56 min Bit rate : 63 b/s Frame rate : 0.267 FPS Count of elements : 1862 Stream size : 54.1 KiB (0%) Title : English SDH Language : English Default : No Forced : No Menu 00:00:00.000 : en:Chapter 01 00:12:55.399 : en:Chapter 02 00:22:51.953 : en:Chapter 03 00:31:40.023 : en:Chapter 04 00:43:37.823 : en:Chapter 05 00:54:13.750 : en:Chapter 06 01:05:25.421 : en:Chapter 07 01:14:28.297 : en:Chapter 08 01:24:07.792 : en:Chapter 09 01:33:24.640 : en:Chapter 10 01:47:44.666 : en:Chapter 11 01:56:12.298 : en:Chapter 12

Всего файлов в раздаче: 1 
Haunting.of.the.Queen.Mary.2023.BDRemux.1080p.pk.mkv30.71 GB

Похожие раздачи по запросу - Корабль
2024-04-03 magnet Корабль призраков / Haunting of the Queen Mary (2023) BDRip 1080p от селезень | D 9.51 GB ↑ 0 ↓ 1
2024-03-30 magnet Корабль-призрак / Ghost Ship (2002) BDRip 720p от DoMiNo & селезень | D 5.24 GB ↑ 0 ↓ 0
2024-03-30 magnet Корабль призраков / Haunting of the Queen Mary (2023) BDRip от toxics & селезень | D 1.46 GB ↑ 1 ↓ 0
2024-03-30 magnet Корабль призраков / Haunting of the Queen Mary (2023) BDRip 720p от DoMiNo & селезень | D 4.03 GB ↑ 0 ↓ 0
2024-03-29 magnet Корабль призраков / Haunting of the Queen Mary (2023) BDRip от MegaPeer | D 1.46 GB ↑ 0 ↓ 0
2024-03-28 magnet Летучий корабль (1979) WEBRip 1080p от DoMiNo 725.36 MB ↑ 0 ↓ 0

Комментарии


Зарегистрируйтесь чтобы добавить комментарий
Торрент клиент
byTorrent - программа для загрузки торрент-файлов.

Скачать byTorrent.exe (1,5 МБ)

Скачать byTorrent.zip (0,6 МБ)

Поддержи torrent.by
российских рублей
(300 российских рублей это 4$)

Обратная связь rss

End game ©