↑↓torrent.by
Поиск
Логин:  Регистрация
Пароль:

Престиж [S01] (2023) WEBRip-AVC от Generalfilm | КПК

download Скачать торрент-файл   magnet Магнитная ссылка Размер: 1.69 GB Добавлен: 2024-03-31 05:00
Пиры будут получены из сети DHT
Последний сидер был замечен 2024-04-03 08:32
Информация о фильме Оригинальное название: Престиж Год выпуска: 2023 Жанр: Детектив, драма, комедия Режиссер: Сергей Сенцов В ролях: Ирина Розанова, Юлия Снигирь, Аскар Ильясов, Илья Любимов, Анна Уколова, Любовь Толкалина, Марина Доможирова, Вера Панфилова, Ирина Дубцова, Никита Павленко, Азат Жумадил, Илья Лыков, Глафира Глазунова, Настасья Самбурская, Жаргал Бадмацыренов О сериале: Поселок Престиж - место для избранных. Здесь живут чиновники, топ-менеджеры, оперные дивы со своими семьями и прислугой. Привычное существование поселка прерывает убийство няни семьи Филимоновых. Это заставляет соседей смотреть друг на друга с подозрением и задаться вопросом: так ли безупречны те, кому они доверяют самое дорогое - своих детей. В ходе расследования, которое начинает «королева местной полиции» Елизавета Егоровна, становится ясно, что свои тайны и мотивы для убийства есть абсолютно у каждого обитателя Престижа. Страна: Россия Студия: Кинокомпания "START Studio", "Киностудия КИТ", СТС Продолжительность: 8 x ~ 00:47:00 Перевод: Не требуется Файл Формат: MP4 Качество: WEBRip-AVC Видео: MPEG-4 AVC (x264), 640x344, ~ 500 kbps, 25.000 fps Аудио: AAC LC, 48.0 KHz, 2 ch, 128 Kbps Субтитры: Нет
[+] Скриншоты
[+] MIComplete name : D:киноPrestizh.S01.2024.WEBRip-AVC.KPK.GFPrestizh.s01e02.2024.WEBRip-AVC.KPK.GF.mp4 Format : MPEG-4 Codec ID : M4V (isom/iso2/avc1) File size : 217 MiB Duration : 47mn 47s Overall bit rate mode : Variable Overall bit rate : 634 Kbps Writing application : Lavf53.19.0 Video ID : 1 Format : AVC Format/Info : Advanced Video Codec Format profile : High@L4.1 Format settings, CABAC : Yes Format settings, ReFrames : 8 frames Codec ID : avc1 Codec ID/Info : Advanced Video Coding Duration : 47mn 47s Bit rate : 500 Kbps Width : 640 pixels Height : 344 pixels Display aspect ratio : 1.85:1 Frame rate mode : Constant Frame rate : 25.000 fps Color space : YUV Chroma subsampling : 4:2:0 Bit depth : 8 bits Scan type : Progressive Bits/(Pixel*Frame) : 0.091 Stream size : 171 MiB (79%) Writing library : x264 core 146 r2538 121396c Encoding settings : cabac=1 / ref=8 / deblock=1:-1:-1 / analyse=0x3:0x133 / me=umh / subme=10 / psy=1 / psy_rd=1.00:0.00 / mixed_ref=1 / me_range=24 / chroma_me=1 / trellis=2 / 8x8dct=1 / cqm=0 / deadzone=21,11 / fast_pskip=1 / chroma_qp_offset=-2 / threads=3 / lookahead_threads=1 / sliced_threads=0 / nr=0 / decimate=1 / interlaced=0 / bluray_compat=0 / constrained_intra=0 / bframes=8 / b_pyramid=2 / b_adapt=2 / b_bias=0 / direct=3 / weightb=1 / open_gop=0 / weightp=2 / keyint=250 / keyint_min=126 / scenecut=40 / intra_refresh=0 / rc_lookahead=40 / rc=2pass / mbtree=1 / bitrate=500 / ratetol=1.0 / qcomp=0.60 / qpmin=0 / qpmax=69 / qpstep=4 / cplxblur=20.0 / qblur=0.5 / ip_ratio=1.40 / aq=1:1.00 Menus : 3 Audio ID : 2 Format : AAC Format/Info : Advanced Audio Codec Format profile : LC Codec ID : 40 Duration : 47mn 47s Bit rate mode : Variable Bit rate : 128 Kbps Channel(s) : 2 channels Channel positions : Front: L R Sampling rate : 48.0 KHz Frame rate : 46.875 fps (1024 spf) Compression mode : Lossy Stream size : 43.7 MiB (20%) Default : Yes Alternate group : 1 Menus : 3
Релиз от:

Всего файлов в раздаче: 8 
Prestizh.s01e01.2024.WEBRip-AVC.KPK.GF.mp4216.00 MB
Prestizh.s01e02.2024.WEBRip-AVC.KPK.GF.mp4216.69 MB
Prestizh.s01e03.2024.WEBRip-AVC.KPK.GF.mp4215.93 MB
Prestizh.s01e04.2024.WEBRip-AVC.KPK.GF.mp4216.46 MB
Prestizh.s01e05.2024.WEBRip-AVC.KPK.GF.mp4216.66 MB
Prestizh.s01e06.2024.WEBRip-AVC.KPK.GF.mp4216.18 MB
Prestizh.s01e07.2024.WEBRip-AVC.KPK.GF.mp4217.87 MB
Prestizh.s01e08.2024.WEBRip-AVC.KPK.GF.mp4216.78 MB

Похожие раздачи по запросу - Престиж
2024-03-29 magnet Престиж [S01] (2023) WEBRip-AVC от Files-x 4.78 GB ↑ 0 ↓ 0
2024-03-28 magnet Престиж [S01] (2023) WEBRip 2160p | 4K | SDR 51.79 GB ↑ 0 ↓ 0
2024-03-28 magnet Престиж [S01] (2023) WEBRip 1080p 2К13.32 GB ↑ 0 ↓ 0
2024-03-28 magnet Престиж [S01] (2023) WEBRip 5.11 GB ↑ 0 ↓ 0
2024-03-21 magnet Престиж [01-07 из 08] (2023) WEBRip-AVC от Files-x 4.19 GB ↑ 0 ↓ 0
2024-03-21 magnet Престиж [01-07 из 08] (2023) WEBRip 1080p 11.69 GB ↑ 0 ↓ 0
2024-03-15 magnet Престиж [01-06 из 08] (2023) WEBRip-AVC от Files-x 3.58 GB ↑ 0 ↓ 0

Комментарии


Зарегистрируйтесь чтобы добавить комментарий
Торрент клиент
byTorrent - программа для загрузки торрент-файлов.

Скачать byTorrent.exe (1,5 МБ)

Скачать byTorrent.zip (0,6 МБ)

Поддержи torrent.by
российских рублей
(300 российских рублей это 4$)

Обратная связь rss

End game ©