↑↓torrent.by
Поиск
Логин:  Регистрация
Пароль:

Вистинг / Уистинг / Wisting [S04] (2024) WEB-DLRip-AVC от DoMiNo & селезень | HDrezka Studio

download Скачать торрент-файл   magnet Магнитная ссылка Размер: 1.94 GB Добавлен: 2024-03-31 05:00
Пиры будут получены из сети DHT
Последний сидер был замечен сегодня в 04:08
Информация о фильме Название: Вистинг (Уистинг) Оригинальное название: Wisting Год выхода: 2024 Жанр: Криминал, детектив Режиссер: Тригве Аллистер Дайсен, Катарина Лаунинг В ролях: Свен Нордин, Кэрри-Энн Мосс, Мэдс Оусдаль, Гард Б. Эйдсвольд, Ларс Берге, Ульрикке Хансен Дёвиген, Ирина Эйдсвольд Тойен, Хьерсти Сандал, Хайди Голдман, Даниэль Фрикстад О фильме: В центре сюжета сериала, основанного на детективных романах Йорна Хорста, оказывается Уильям Вистинг — дотошный и честолюбивый полицейский, который занимается охотой на самых известных преступников Норвегии. Однажды во время расследования убийства, совершенного на рождественской ярмарке, детектив получает доказательства того, что в преступлении замешан известный американский серийный убийца. Для Вистинга становится делом чести арестовать неуловимого психопата, однако масштабные розыскные мероприятия не приносят результат... Страна: Норвегия Студия: Cinenord Drama, Good Company Films, Ripple World Pictures Продолжительность: 4 x ~00:44:00 Перевод: Профессиональный (многоголосый, закадровый) | HDrezka Studio Субтитры: Русские (Forced), английские Файл Формат: Matroska Качество: WEB-DLRip-AVC Видео: 1024x436 at 25.000 fps, x264@L4.1, ~1400 kbps Аудио: AC3, 2 ch, ~192 kbps - | Русский | Формат субтитров: softsub (SRT) ***Рип от: -=DoMiNo=-
[+] M/Ix264 : frame I:515 Avg QP:13.76 size: 47170 x264 : frame P:15174 Avg QP:15.99 size: 16584 x264 : frame B:50039 Avg QP:17.73 size: 3677 General Unique ID : 152596741611114885173688872039240511226 (0x72CD103B89B61911B4DCF0EDB2552EFA) Complete name : R:Wisting.S04.2024.WEB-DLRip.x264.seleZenWisting.S04E01.WEB-DLRip.x264.seleZen.mkv Format : Matroska Format version : Version 4 File size : 501 MiB Duration : 43 min 56 s Overall bit rate : 1 593 kb/s Frame rate : 25.000 FPS Movie name : Wisting.S04E01.WEB-DLRip.x264.seleZen Encoded date : 2024-03-30 08:05:49 UTC Writing application : mkvmerge v83.0 ('Circle Of Friends') 64-bit Writing library : libebml v1.4.5 + libmatroska v1.7.1 Cover : Yes Attachments : cover.jpg / small_cover.jpg Video ID : 1 Format : AVC Format/Info : Advanced Video Codec Format profile : High@L4.1 Format settings : CABAC / 10 Ref Frames Format settings, CABAC : Yes Format settings, Reference : 10 frames Codec ID : V_MPEG4/ISO/AVC Duration : 43 min 56 s Bit rate : 1 400 kb/s Width : 1 024 pixels Height : 436 pixels Display aspect ratio : 2.35:1 Frame rate mode : Constant Frame rate : 25.000 FPS Color space : YUV Chroma subsampling : 4:2:0 Bit depth : 8 bits Scan type : Progressive Bits/(Pixel*Frame) : 0.125 Stream size : 440 MiB (88%) Title : -=DoMiNo=- Writing library : x264 core 164 r3190 -DoMiNo Encoding settings : cabac=1 / ref=10 / deblock=1:-2:-1 / analyse=0x3:0x133 / me=umh / subme=10 / psy=1 / psy_rd=1.00:0.15 / mixed_ref=1 / me_range=32 / chroma_me=1 / trellis=2 / 8x8dct=1 / cqm=0 / deadzone=21,11 / fast_pskip=0 / chroma_qp_offset=-3 / threads=14 / lookahead_threads=3 / sliced_threads=0 / nr=0 / decimate=0 / interlaced=0 / bluray_compat=0 / constrained_intra=0 / bframes=10 / b_pyramid=2 / b_adapt=2 / b_bias=0 / direct=3 / weightb=1 / open_gop=0 / weightp=2 / keyint=250 / keyint_min=25 / scenecut=40 / intra_refresh=0 / rc_lookahead=60 / rc=2pass / mbtree=0 / bitrate=1400 / ratetol=1.0 / qcomp=0.60 / qpmin=0 / qpmax=69 / qpstep=4 / cplxblur=20.0 / qblur=0.5 / vbv_maxrate=50000 / vbv_bufsize=62500 / nal_hrd=none / filler=0 / ip_ratio=1.20 / pb_ratio=1.30 / aq=3:0.90 Language : English Default : Yes Forced : No Color range : Limited Color primaries : BT.709 Transfer characteristics : BT.709 Matrix coefficients : BT.709 Audio ID : 2 Format : AC-3 Format/Info : Audio Coding 3 Commercial name : Dolby Digital Codec ID : A_AC3 Duration : 43 min 56 s Bit rate mode : Constant Bit rate : 192 kb/s Channel(s) : 2 channels Channel layout : L R Sampling rate : 48.0 kHz Frame rate : 31.250 FPS (1536 SPF) Compression mode : Lossy Stream size : 60.4 MiB (12%) Title : HDrezka Studio Language : Russian Service kind : Complete Main Default : Yes Forced : No Text #1 ID : 3 Format : UTF-8 Codec ID : S_TEXT/UTF8 Codec ID/Info : UTF-8 Plain Text Duration : 33 min 23 s Bit rate : 2 b/s Frame rate : 0.004 FPS Count of elements : 8 Stream size : 558 Bytes (0%) Title : Forced Language : Russian Default : No Forced : No Text #2 ID : 4 Format : UTF-8 Codec ID : S_TEXT/UTF8 Codec ID/Info : UTF-8 Plain Text Duration : 42 min 41 s Bit rate : 44 b/s Frame rate : 0.138 FPS Count of elements : 354 Stream size : 13.9 KiB (0%) Language : Norwegian Bokmal Default : No Forced : No Text #3 ID : 5 Format : UTF-8 Codec ID : S_TEXT/UTF8 Codec ID/Info : UTF-8 Plain Text Duration : 42 min 47 s Bit rate : 38 b/s Frame rate : 0.139 FPS Count of elements : 356 Stream size : 12.1 KiB (0%) Language : English Default : No Forced : No
Релиз: Присоединяйся к: Кликай на баннеры.

Всего файлов в раздаче: 4 
Wisting.S04E01.WEB-DLRip.x264.seleZen.mkv500.84 MB
Wisting.S04E02.WEB-DLRip.x264.seleZen.mkv494.46 MB
Wisting.S04E03.WEB-DLRip.x264.seleZen.mkv494.57 MB
Wisting.S04E04.WEB-DLRip.x264.seleZen.mkv499.54 MB

Похожие раздачи по запросу - Вистинг
2024-03-31 magnet Вистинг / Уистинг / Wisting [S03] (2022) WEB-DLRip-AVC от DoMiNo | Кубик в Кубе 2.70 GB ↑ 0 ↓ 0
2024-03-30 magnet Вистинг / Уистинг / Wisting [S02] (2021) WEB-DLRip-AVC от DoMiNo | Кубик в Кубе 1К2.22 GB ↑ 0 ↓ 0
2024-03-29 magnet Вистинг / Уистинг / Wisting [S01] (2019) WEB-DLRip-AVC от DoMiNo | Кубик в Кубе 6.34 GB ↑ 0 ↓ 0

Комментарии


Зарегистрируйтесь чтобы добавить комментарий
Торрент клиент
byTorrent - программа для загрузки торрент-файлов.

Скачать byTorrent.exe (1,5 МБ)

Скачать byTorrent.zip (0,6 МБ)

Поддержи torrent.by
российских рублей
(300 российских рублей это 4$)

Обратная связь rss

End game ©