↑↓torrent.by
Поиск
Логин:  Регистрация
Пароль:

PreGoblin - Pregoblin II [24-bit Hi-Res] (2024) FLAC

download Скачать торрент-файл   magnet Магнитная ссылка Размер: 535.25 MB Добавлен: 2024-03-31 11:00
Пиры будут получены из сети DHT
Последний сидер был замечен 2024-03-31 11:00
Название: Pregoblin II Исполнитель: PreGoblin Год: 2024 Жанр: Electronic, Rock, Alternative-Rock, Indie-Rock, Psychedelic-Rock Издатель (лейбл): Strap Originals Продолжительность: 00:44:24 Формат/Кодек: FLAC Тип рипа: Tracks Битрейт аудио: Lossless Разрядность: 24 Bit/48 kHz
[+] Трек-лист 01. Big Hitters (00:03:53) 02. Roma (00:03:47) 03. Everybody's Ill (At The Moment), Pt.1 (00:01:58) 04. Everybody's Ill (At The Moment), Pt. 2 (00:03:18) 05. Moving On (00:02:28) 06. Nobody Likes Me (00:03:34) 07. Make Luv (I Like To Party) (00:03:35) 08. Alpha Business (00:03:43) 09. These Hands Aka Danny Knife (00:04:15) 10. Sort It Out Down There (00:03:11) 11. Wimpy (Album Version) (00:03:51) 12. Two Kinds Of Music (00:02:36) 13. Big Hitters (Reprise) (00:04:15)
[+] DRM foobar2000 1.5.5 / Замер динамического диапазона (DR) 1.1.1 -------------------------------------------------------------------------------- Анализ: Pregoblin / Pregoblin Ii -------------------------------------------------------------------------------- DR Пики RMS Продолжительность трека -------------------------------------------------------------------------------- DR5 -0.16 дБ -7.12 дБ 3:53 01-Big Hitters DR7 -0.16 дБ -8.54 дБ 3:47 02-Roma DR6 -0.16 дБ -7.73 дБ 1:58 03-Everybody's Ill (At The Moment), Pt.1 DR6 -0.16 дБ -7.40 дБ 3:18 04-Everybody's Ill (At The Moment), Pt. 2 DR5 -0.16 дБ -7.70 дБ 2:28 05-Moving On DR5 -0.16 дБ -6.80 дБ 3:34 06-Nobody Likes Me DR7 -0.16 дБ -9.13 дБ 3:35 07-Make Luv (I Like To Party) DR7 -0.16 дБ -8.01 дБ 3:43 08-Alpha Business DR6 -0.16 дБ -7.60 дБ 4:15 09-These Hands Aka Danny Knife DR6 -0.16 дБ -6.81 дБ 3:11 10-Sort It Out Down There DR6 -0.16 дБ -7.78 дБ 3:51 11-Wimpy (Album Version) DR6 -0.16 дБ -7.25 дБ 2:36 12-Two Kinds Of Music DR6 -0.16 дБ -9.21 дБ 4:15 13-Big Hitters (Reprise) -------------------------------------------------------------------------------- Количество треков: 13 Реальные значения DR: DR6 Частота: 48000 Гц Каналов: 2 Разрядность: 24 Битрейт: 1629 кбит/с Кодек: FLAC ================================================================================
Время раздачи: 24/7 (минимум до появления первых 3-5 скачавших, на раздачи не возвращаюсь) Первое правило участника файлообмена: "Скачал сам - дай скачать другому!"

Всего файлов в раздаче: 14 
01. Big Hitters.flac47.90 MB
02. Roma.flac45.69 MB
03. Everybody's Ill (At The Moment), Pt.1.flac23.55 MB
04. Everybody's Ill (At The Moment), Pt. 2.flac40.05 MB
05. Moving On.flac27.69 MB
06. Nobody Likes Me.flac44.48 MB
07. Make Luv (I Like To Party).flac40.93 MB
08. Alpha Business.flac46.10 MB
09. These Hands Aka Danny Knife.flac52.40 MB
10. Sort It Out Down There.flac39.74 MB
Показать все файлы

Комментарии


Зарегистрируйтесь чтобы добавить комментарий
Торрент клиент
byTorrent - программа для загрузки торрент-файлов.

Скачать byTorrent.exe (1,5 МБ)

Скачать byTorrent.zip (0,6 МБ)

Поддержи torrent.by
российских рублей
(300 российских рублей это 4$)

Обратная связь rss

End game ©