↑↓torrent.by
Поиск
Логин:  Регистрация
Пароль:

Когда любовь совсем не ждёшь [S01] (2024) WEB-DLRip от Files-x

download Скачать торрент-файл   magnet Магнитная ссылка Размер: 2.51 GB Добавлен: 2024-03-31 11:00
Пиры будут получены из сети DHT
Последний сидер был замечен 2024-04-05 18:29
Информация о фильме Оригинальное название: Когда любовь совсем не ждёшь Год выхода: 2024 Жанр: Мелодрама Режиссер: Валентин Донсков В ролях: Эрика Булатая, Ян Ильвес, Артём Федотов, Наталья Николаева (V), Евдокия Лаврухина, Максим Иванов, Вероника Лысакова, Людмила Титова О фильме: К своим тридцати годам Лида уже успела состояться как перспективный архитектор. Она надеется, что вот-вот получит высокую должность, но начальник тянет с повышением. Изливая подруге душу в ресторане, она встречает своего бывшего. Саша и Лида расстались восемь лет назад, как считает она, из-за измены, а он – из-за того, что она променяла его на богатого поклонника... Страна: Россия Студия: AVK production Продолжительность: 4 х 00:48:00 Перевод: Не требуется Файл Кодек: XviD Качество: WEB-DLRip Видео: XviD, ~ 1605 Кбит/с, 720x400, 25 кадр/с Звук: AC3, 2 ch, 192 Кбит/с
[+] Скриншоты
[+] MediaInfo General Complete name : C:01.Когда любовь совсем не ждешь.s01.E01.(2024).WEB-DLRip.by.Nicodem.Files-x.avi Format : AVI Format/Info : Audio Video Interleave File size : 620 MiB Duration : 47mn 58s Overall bit rate : 1 807 Kbps Writing application : VirtualDubMod 1.5.10.3 | www.virtualdub-fr.org || (build 2550/release) Writing library : VirtualDubMod build 2550/release Video ID : 0 Format : MPEG-4 Visual Format profile : Advanced Simple@L5 Format settings, BVOP : 1 Format settings, QPel : No Format settings, GMC : No warppoints Format settings, Matrix : Custom Codec ID : XVID Codec ID/Hint : XviD Duration : 47mn 58s Bit rate : 1 605 Kbps Width : 720 pixels Height : 400 pixels Display aspect ratio : 16:9 Frame rate : 25.000 fps Color space : YUV Chroma subsampling : 4:2:0 Bit depth : 8 bits Scan type : Progressive Compression mode : Lossy Bits/(Pixel*Frame) : 0.223 Stream size : 551 MiB (89%) Writing library : XviD 73 Audio ID : 1 Format : AC-3 Format/Info : Audio Coding 3 Mode extension : CM (complete main) Codec ID : 2000 Duration : 47mn 58s Bit rate mode : Constant Bit rate : 192 Kbps Channel(s) : 2 channels Channel positions : Front: L R Sampling rate : 48.0 KHz Bit depth : 16 bits Compression mode : Lossy Stream size : 65.9 MiB (11%) Alignment : Split accross interleaves Interleave, duration : 40 ms (1.00 video frame) Interleave, preload duration : 500 ms
Релиз от:

Всего файлов в раздаче: 4 
01.Когда любовь совсем не ждешь.s01.E01.(2024).WEB-DLRip.by.Nicodem.Files-x.avi620.09 MB
02.Когда любовь совсем не ждешь.s01.E02.(2024).WEB-DLRip.by.Nicodem.Files-x.avi630.16 MB
03.Когда любовь совсем не ждешь.s01.E03.(2024).WEB-DLRip.by.Nicodem.Files-x.avi640.04 MB
04.Когда любовь совсем не ждешь.s01.E04.(2024).WEB-DLRip.by.Nicodem.Files-x.avi680.33 MB

Похожие раздачи по запросу - Когда
2024-04-08 magnet Что? Где? Когда? Весенняя серия игр [01-02 из 05] (2024) HDTVRip 1.96 GB ↑ 1 ↓ 0
2024-04-08 magnet Что? Где? Когда? Весенняя серия игр [01-02 из 05] (2024) HDTV 1080p 7.30 GB ↑ 0 ↓ 0
2024-04-02 magnet Что? Где? Когда? Весенняя серия игр [01 из 05] (2024) HDTV 1080p 3.36 GB ↑ 0 ↓ 0
2024-04-02 magnet Что? Где? Когда? Весенняя серия игр [01 из 05] (2024) HDTVRip 920.97 MB ↑ 0 ↓ 0
2024-03-31 magnet Когда любовь совсем не ждешь [01-04 из 04] (2024) WEB-DL 1080p 5.39 GB ↑ 0 ↓ 0
2024-03-31 magnet Когда любовь совсем не ждешь [S01] (2024) WEB-DLRip-AVC от Files-x 2.49 GB ↑ 0 ↓ 0
2024-03-17 magnet Блокбастеры 80х - когда Голливуд играл по-жесткому / 80’s Blockbusters: When Hollywood Played Tough (2016) HDTV 1080i | P1 2.52 GB ↑ 0 ↓ 0

Комментарии


Зарегистрируйтесь чтобы добавить комментарий
Торрент клиент
byTorrent - программа для загрузки торрент-файлов.

Скачать byTorrent.exe (1,5 МБ)

Скачать byTorrent.zip (0,6 МБ)

Поддержи torrent.by
российских рублей
(300 российских рублей это 4$)

Обратная связь rss

End game ©