↑↓torrent.by
Поиск
Логин:  Регистрация
Пароль:

Должное правосудие / Due Justice (2023) BDRip 720p от MegaPeer | D

download Скачать торрент-файл   magnet Магнитная ссылка Размер: 3.46 GB Добавлен: 2024-03-31 11:00
Пиры будут получены из сети DHT
Последний сидер был замечен 2024-04-01 05:19
«Vengeance is his» Информация Название: Должное правосудие Оригинальное название: Due Justice Год выхода: 2023 Жанр: Боевик, триллер, драма, криминал Режиссер: Хавьер Рейна В ролях: Келлан Латс, Джефф Фэйи, Эфрен Рамирес, Челси Лопес, Альфред Кастильо, Аллен Фицпатрик, Ману Интирэйми, Кристиан Дэй,, Синтия Гири, Дэррил Лемон Описание: Любимая жена и родной брат адвоката Макса убиты, а маленькая дочь исчезла. Полицейские разводят руками, не имея никаких зацепок, лишь предполагая, что это ужасное преступление — дело рук организованной банды, торгующей детскими органами. Понимая, что жизнь дочери может оборваться в любую минуту, Макс, бывший спецназовец, приступает к собственной миссии по выслеживанию преступников. Детектив Сантьяго, назначенный на это дело, пытается остановить охваченного горем мужчину, понимая, что тот готов на все в своей жажде мести. Страна: США Студия: Al Bravo Films, BondIt, Premiere Entertainment Group, Revisilagi Vfx Studio Продолжительность: 01:37:40 Перевод: Профессиональный (полное дублирование) | OKKO Файл Качество: BDRip 720p Исходник: Due.Justice.2023.MULTi.COMPLETE.BLURAY-SharpHD Формат: MKV Кодек: MPEG-4 AVC Видео: 1280x536 (2.40:1), 23,976 fps, MPEG-4 AVC ~ 3659 Kbps avg, 0.222 bit/pixel Аудио: AC3, 48 kHz, 6 ch, ~384.00 kbps avg | русский | DUB | Аудио: E-AC3, 48 kHz, 6 ch, ~384.00 kbps avg | русский | DUB | Аудио: AC3, 48 kHz, 6 ch, ~640.00 kbps avg | английский | Субтитры: Русские (Forced), Английские (Full, SDH)
[+] Инфо-файлОбщее Уникальный идентификатор : 183543181812031353660509868832563125848 (0x8A152188D277D2BA9EBFA73F9E67DE58) Полное имя : C:UsersValera NovikDesktopDue.Justice.2023.720p.BluRay.DD.5.1.x264-MegaPeer.mkv Формат : Matroska Версия формата : Version 4 Размер файла : 3,46 Гбайт Продолжительность : 1 ч. 37 мин. Общий битрейт : 5 070 Кбит/сек Частота кадров : 23,976 кадра/сек Название фильма : Должное правосудие / Due Justice (2023) от stillet@MegaPeer Дата кодирования : 2024-03-31 05:24:24 UTC Программа кодирования : mkvmerge v15.0.0 ('Duel with the Devil') 64-bit Библиотека кодирования : libebml v1.3.5 + libmatroska v1.4.5 Обложка : Yes Attachments : cover.jpg Видео Идентификатор : 1 Формат : AVC Формат/Информация : Advanced Video Codec Профиль формата : High@L4.1 Настройки формата : CABAC / 11 Ref Frames Параметр CABAC формата : Да Параметр RefFrames формата : 11 кадров Идентификатор кодека : V_MPEG4/ISO/AVC Продолжительность : 1 ч. 37 мин. Битрейт : 3 659 Кбит/сек Ширина : 1 280 пикселей Высота : 536 пикселей Соотношение сторон дисплея : 2,39:1 Режим частоты кадров : Постоянный Частота кадров : 23,976 (24000/1001) кадра/сек Цветовое пространство : YUV Цветовая субдискретизация : 4:2:0 Битовая глубина : 8 бит Тип развёртки : Прогрессивная Бит/(Пиксели*Кадры) : 0.222 Размер потока : 2,50 Гбайт (72%) Библиотека кодирования : x264 core 164 r3156+57M stillet t_mod_New Параметры библиотеки кодирования : cabac=1 / ref=11 / deblock=1:-3:-3 / analyse=0x3:0x113 / me=umh / subme=10 / psy=1 / fade_compensate=0.00 / psy_rd=1.00:0.00 / mixed_ref=1 / me_range=32 / chroma_me=1 / trellis=2 / 8x8dct=1 / cqm=0 / deadzone=21,11 / fast_pskip=0 / chroma_qp_offset=-2 / threads=12 / lookahead_threads=3 / sliced_threads=0 / nr=0 / decimate=0 / interlaced=0 / bluray_compat=0 / constrained_intra=0 / fgo=0 / bframes=11 / b_pyramid=2 / b_adapt=2 / b_bias=0 / direct=3 / weightb=1 / open_gop=0 / weightp=2 / keyint=240 / keyint_min=24 / scenecut=40 / intra_refresh=0 / rc_lookahead=40 / rc=2pass / mbtree=0 / bitrate=3659 / ratetol=1.0 / qcomp=0.60 / qpmin=0:0:0 / qpmax=69:69:69 / qpstep=4 / cplxblur=20.0 / qblur=0.5 / vbv_maxrate=50000 / vbv_bufsize=62500 / nal_hrd=none / filler=0 / ip_ratio=1.40 / pb_ratio=1.30 / aq=1:1.10 / aq-sensitivity=10.00 / aq-factor=1.00:1.00:1.00 / aq2=0 / aq3=0 Язык : Английский По умолчанию : Да Принудительно : Нет Аудио #1 Идентификатор : 2 Формат : AC-3 Формат/Информация : Audio Coding 3 Коммерческое название : Dolby Digital Идентификатор кодека : A_AC3 Продолжительность : 1 ч. 37 мин. Вид битрейта : Постоянный Битрейт : 384 Кбит/сек Канал(-ы) : 6 каналов Расположение каналов : L R C LFE Ls Rs Частота дискретизации : 48,0 КГц Частота кадров : 31,250 кадров/сек (1536 SPF) Метод сжатия : С потерями Размер потока : 268 Мбайт (8%) Заголовок : DUB | OKKO Язык : Русский Вид сервиса : Complete Main По умолчанию : Да Принудительно : Да Аудио #2 Идентификатор : 3 Формат : E-AC-3 Формат/Информация : Enhanced AC-3 Коммерческое название : Dolby Digital Plus Идентификатор кодека : A_EAC3 Продолжительность : 1 ч. 37 мин. Вид битрейта : Постоянный Битрейт : 384 Кбит/сек Канал(-ы) : 6 каналов Расположение каналов : L R C LFE Ls Rs Частота дискретизации : 48,0 КГц Частота кадров : 31,250 кадров/сек (1536 SPF) Метод сжатия : С потерями Размер потока : 268 Мбайт (8%) Заголовок : DUB | OKKO Язык : Русский Вид сервиса : Complete Main По умолчанию : Нет Принудительно : Нет Аудио #3 Идентификатор : 4 Формат : AC-3 Формат/Информация : Audio Coding 3 Коммерческое название : Dolby Digital Идентификатор кодека : A_AC3 Продолжительность : 1 ч. 37 мин. Вид битрейта : Постоянный Битрейт : 640 Кбит/сек Канал(-ы) : 6 каналов Расположение каналов : L R C LFE Ls Rs Частота дискретизации : 48,0 КГц Частота кадров : 31,250 кадров/сек (1536 SPF) Метод сжатия : С потерями Размер потока : 447 Мбайт (13%) Язык : Английский Вид сервиса : Complete Main По умолчанию : Нет Принудительно : Нет Текст #1 Идентификатор : 5 Формат : UTF-8 Идентификатор кодека : S_TEXT/UTF8 Идентификатор кодека/Информация : UTF-8 Plain Text Продолжительность : 1 ч. 33 мин. Битрейт : 3 бит/сек Частота кадров : 0,007 кадр/сек Число элементов : 38 Размер потока : 2,13 КиБ (0%) Заголовок : Forced Язык : Русский По умолчанию : Да Принудительно : Да Текст #2 Идентификатор : 6 Формат : UTF-8 Идентификатор кодека : S_TEXT/UTF8 Идентификатор кодека/Информация : UTF-8 Plain Text Продолжительность : 1 ч. 31 мин. Битрейт : 51 бит/сек Частота кадров : 0,229 кадр/сек Число элементов : 1262 Размер потока : 34,5 КиБ (0%) Заголовок : Full Язык : Английский По умолчанию : Нет Принудительно : Нет Текст #3 Идентификатор : 7 Формат : UTF-8 Идентификатор кодека : S_TEXT/UTF8 Идентификатор кодека/Информация : UTF-8 Plain Text Продолжительность : 1 ч. 36 мин. Битрейт : 59 бит/сек Частота кадров : 0,278 кадр/сек Число элементов : 1616 Размер потока : 42,3 КиБ (0%) Заголовок : SDH Язык : Английский По умолчанию : Нет Принудительно : Нет Меню 00:00:00.000 : Chapter 01 00:09:03.458 : Chapter 02 00:16:49.216 : Chapter 03 00:29:05.285 : Chapter 04 00:34:08.545 : Chapter 05 00:42:23.331 : Chapter 06 00:51:56.237 : Chapter 07 01:00:55.777 : Chapter 08 01:07:03.476 : Chapter 09 01:16:38.760 : Chapter 10 01:27:42.465 : Chapter 11 01:35:09.994 : Chapter 12 01:37:39.520 : Chapter 13
Релиз:

Всего файлов в раздаче: 1 
Due.Justice.2023.720p.BluRay.DD.5.1.x264-MegaPeer.mkv3.46 GB

Похожие раздачи по запросу - Должное
2024-04-04 magnet Должное правосудие / Надлежащее правосудие / Due Justice (2023) BDRip от toxics & селезень | D 1.46 GB ↑ 0 ↓ 2
2024-04-01 magnet Должное правосудие / Надлежащее правосудие / Due Justice (2023) BDRip 720p от DoMiNo & селезень | D 3.93 GB ↑ 0 ↓ 0
2024-03-31 magnet Должное правосудие / Надлежащее правосудие / Due Justice (2023) BDRip-AVC от DoMiNo & селезень | D 1.35 GB ↑ 0 ↓ 0
2024-03-31 magnet Должное правосудие / Due Justice (2023) BDRip 1080p от MegaPeer | D 7.84 GB ↑ 0 ↓ 0
2024-03-31 magnet Должное правосудие / Due Justice (2023) BDRip от MegaPeer | D 1К1.46 GB ↑ 0 ↓ 0
2024-03-19 magnet Должное правосудие / Due Justice (2023) WEB-DL 1080p | D 4.98 GB ↑ 1 ↓ 0
2024-03-18 magnet Должное правосудие / Надлежащее правосудие / Due Justice (2023) WEB-DLRip-AVC от DoMiNo & селезень | D 1.24 GB ↑ 0 ↓ 0

Комментарии


Зарегистрируйтесь чтобы добавить комментарий
Торрент клиент
byTorrent - программа для загрузки торрент-файлов.

Скачать byTorrent.exe (1,5 МБ)

Скачать byTorrent.zip (0,6 МБ)

Поддержи torrent.by
российских рублей
(300 российских рублей это 4$)

Обратная связь rss

End game ©