↑↓torrent.by
Поиск
Логин:  Регистрация
Пароль:

Когда любовь совсем не ждешь [01-04 из 04] (2024) WEB-DL 1080p

download Скачать торрент-файл   magnet Магнитная ссылка Размер: 5.39 GB Раздают: 1 Качают: 0 Добавлен: 2024-03-31 11:00
Пиры будут получены из сети DHT
Последний сидер был замечен сегодня в 22:43
Информация о сериале Название: Когда любовь совсем не ждешь Год выхода: 2024 Жанр: Мелодрама Режиссер: Валентин Донсков В ролях: Эрика Булатая, Ян Ильвес, Артём Федотов, Наталья Николаева, Евдокия Лаврухина, Максим Иванов, Вероника Лысакова, Людмила Титова, Екатерина Степанова О сериале: К тридцати годам Лида уже успела состояться как перспективный архитектор. Она надеется, что вот-вот получит высокую должность, но начальник тянет с повышением. Изливая подруге душу в ресторане, она встречает своего бывшего. Саша и Лида расстались восемь лет назад, как считает она, из-за измены, а он – из-за того, что она променяла его на богатого поклонника. Разговор бывших влюбленных начинается с обвинений, а заканчивается дома у Саши. Наутро Лида видит в компьютере его фотографию с девушкой. Осознав, что Саша в отношениях, она сбегает, ругая себя, что снова поверила предателю. Лида надеется, что больше никогда его не увидит, ведь они даже не обменялись номерами. Но оказывается, ее босс решил уйти на пенсию и передал управление новому владельцу компании – Саше... Страна: Россия Студия: «AVK production» Продолжительность: ~00:48:00 серия Файл Кодек: h.264 Качество: WEB-DL 1080p Видео: AVC, 1920x1080, ~3700 kbps Звук: AAC, 2 ch, 192 Kbps Субтитры: Отсутствуют
[+] MediaInfo:General Unique ID: 304475716503640021225085659526520324419 (0xE50FE3D56C0AF3566C82AB7B6BE34143) Complete name: Когда любовь совсем не ждешь S01_E01 2024 1080p.mkv Format: Matroska Format version: Version 4 File size: 1.31 GiB Duration: 47 min 58 s Overall bit rate: 3 912 kb/s Frame rate: 25.000 FPS Encoded date: 2024-03-31 02:41:06 UTC Writing application: mkvmerge v77.0 ('Elemental') 64-bit Writing library: libebml v1.4.4 + libmatroska v1.7.1 Video ID: 1 Format: AVC Format/Info: Advanced Video Codec Format profile: High@L4.1 Format settings: CABAC / 4 Ref Frames Format settings, CABAC: Yes Format settings, Reference: 4 frames Format settings, GOP: M=4, N=50 Codec ID: V_MPEG4/ISO/AVC Duration: 47 min 58 s Bit rate: 3 718 kb/s Width: 1 920 pixels Height: 1 080 pixels Display aspect ratio: 16:9 Active Format Deion: Full frame 16:9 image Frame rate mode: Constant Frame rate: 25.000 FPS Standard: PAL Color space: YUV Chroma subsampling: 4:2:0 Bit depth: 8 bits Scan type: Progressive Bits/(Pixel*Frame): 0.072 Stream size: 1.25 GiB (95%) Default: Yes Forced: No Color range: Limited Color primaries: BT.709 Transfer characteristics: BT.709 Matrix coefficients: BT.709 Audio ID: 2 Format: AAC LC Format/Info: Advanced Audio Codec Low Complexity Codec ID: A_AAC-2 Duration: 47 min 58 s Bit rate: 192 kb/s Channel(s): 2 channels Channel layout: L R Sampling rate: 48.0 kHz Frame rate: 46.875 FPS (1024 SPF) Compression mode: Lossy Stream size: 65.9 MiB (5%) Default: Yes Forced: No
[+] Скриншоты

Всего файлов в раздаче: 4 
Когда любовь совсем не ждешь S01_E01 2024 1080p.mkv1.31 GB
Когда любовь совсем не ждешь S01_E02 2024 1080p.mkv1.32 GB
Когда любовь совсем не ждешь S01_E03 2024 1080p.mkv1.34 GB
Когда любовь совсем не ждешь S01_E04 2024 1080p.mkv1.42 GB

Похожие раздачи по запросу - Когда
2024-04-15 magnet Что? Где? Когда? Весенняя серия игр [01-03 из 05] (2024) HDTV 1080p 9.65 GB ↑ 0 ↓ 0
2024-04-15 magnet Что? Где? Когда? Весенняя серия игр [01-03 из 05] (2024) HDTVRip 2.58 GB ↑ 0 ↓ 0
2024-04-08 magnet Что? Где? Когда? Весенняя серия игр [01-02 из 05] (2024) HDTVRip 1.96 GB ↑ 0 ↓ 0
2024-04-08 magnet Что? Где? Когда? Весенняя серия игр [01-02 из 05] (2024) HDTV 1080p 7.30 GB ↑ 0 ↓ 0
2024-04-02 magnet Что? Где? Когда? Весенняя серия игр [01 из 05] (2024) HDTV 1080p 3.36 GB ↑ 0 ↓ 0
2024-04-02 magnet Что? Где? Когда? Весенняя серия игр [01 из 05] (2024) HDTVRip 920.97 MB ↑ 0 ↓ 0
2024-03-31 magnet Когда любовь совсем не ждёшь [S01] (2024) WEB-DLRip от Files-x 2.51 GB ↑ 0 ↓ 0

Комментарии


Зарегистрируйтесь чтобы добавить комментарий
Торрент клиент
byTorrent - программа для загрузки торрент-файлов.

Скачать byTorrent.exe (1,5 МБ)

Скачать byTorrent.zip (0,6 МБ)

Поддержи torrent.by
российских рублей
(300 российских рублей это 4$)

Обратная связь rss

End game ©