↑↓torrent.by
Поиск
Логин:  Регистрация
Пароль:

Как поймать монстра / Lost River (2014) BDRip 1080p | НТВ+

download Скачать торрент-файл   magnet Магнитная ссылка Размер: 7.65 GB Добавлен: 2024-03-31 17:00
Пиры будут получены из сети DHT
Последний сидер был замечен 2024-04-10 09:20
Информация о фильме Название: Как поймать монстра Оригинальное название: Lost River Год выхода: 2014 Жанр: фэнтези, триллер Режиссер: Райан Гослинг В ролях: Кристина Хендрикс, Йен де Кестекер, Сирша Ронан, Мэтт Смит, Бен Мендельсон, Ева Мендес, Реда Катеб, Барбара Стил, Лендин Стюарт, Роб Забрески О фильме: История о матери-одиночке, которая побывала в темном подземном мире, в то время как ее сын нашел дорогу, ведущую в подводный секретный город. Выпущено: США / Bold Films, Marc Platt Productions, Phantasma Продолжительность: 01:34:57 Озвучивание: Дублированное Файл Качество: BDRip 1080p Видео: MPEG-4 AVC, 10.5 Мбит/с, 1920x800 Аудио: Русский (AC3, 6 ch, 384 Кбит/с), английский (AC3, 6 ch, 640 Кбит/с) Субтитры: English
[+] Скриншоты
[+] MediaInfoGeneral Unique ID : 178314836589203607587629998449522523074 (0x862630367F5E78E1817EEB49A3823BC2) Complete name : D:ВидеоKak.poymat.monstra.2014.D.BDRip.1080p.mkv Format : Matroska Format version : Version 2 File size : 7.65 GiB Duration : 1h 35mn Overall bit rate : 11.5 Mbps Encoded date : UTC 2015-12-10 16:38:32 Writing application : mkvmerge v8.3.0 ('Over the Horizon') 64bit Writing library : libebml v1.3.1 + libmatroska v1.4.2 DURATION : 01:35:02.752000000 NUMBER_OF_FRAMES : 178211 NUMBER_OF_BYTES : 273732096 _STATISTICS_WRITING_APP : mkvmerge v8.3.0 ('Over the Horizon') 64bit _STATISTICS_WRITING_DATE_UTC : 2015-12-10 16:38:32 _STATISTICS_TAGS : BPS DURATION NUMBER_OF_FRAMES NUMBER_OF_BYTES Video ID : 1 Format : AVC Format/Info : Advanced Video Codec Format profile : High@L4.1 Format settings, CABAC : Yes Format settings, ReFrames : 5 frames Codec ID : V_MPEG4/ISO/AVC Duration : 1h 35mn Bit rate : 10.5 Mbps Width : 1 920 pixels Height : 800 pixels Display aspect ratio : 2.40:1 Frame rate mode : Constant Frame rate : 23.976 fps Color space : YUV Chroma subsampling : 4:2:0 Bit depth : 8 bits Scan type : Progressive Bits/(Pixel*Frame) : 0.285 Stream size : 6.82 GiB (89%) Writing library : x264 core 142 r2479 dd79a61 Encoding settings : cabac=1 / ref=5 / deblock=1:-3:-3 / analyse=0x3:0x133 / me=umh / subme=11 / psy=1 / psy_rd=1.00:0.10 / mixed_ref=1 / me_range=48 / chroma_me=1 / trellis=2 / 8x8dct=1 / cqm=0 / deadzone=21,11 / fast_pskip=0 / chroma_qp_offset=-3 / threads=12 / lookahead_threads=2 / sliced_threads=0 / nr=0 / decimate=1 / interlaced=0 / bluray_compat=0 / constrained_intra=0 / bframes=8 / b_pyramid=2 / b_adapt=2 / b_bias=0 / direct=3 / weightb=1 / open_gop=0 / weightp=2 / keyint=250 / keyint_min=23 / scenecut=40 / intra_refresh=0 / rc_lookahead=80 / rc=2pass / mbtree=0 / bitrate=10500 / ratetol=1.0 / qcomp=0.75 / qpmin=0 / qpmax=69 / qpstep=4 / cplxblur=20.0 / qblur=0.5 / vbv_maxrate=38000 / vbv_bufsize=30000 / nal_hrd=none / filler=0 / ip_ratio=1.40 / pb_ratio=1.30 / aq=1:0.80 Language : English Default : Yes Forced : No DURATION : 01:35:01.696000000 NUMBER_OF_FRAMES : 136704 NUMBER_OF_BYTES : 7482764085 _STATISTICS_WRITING_APP : mkvmerge v8.3.0 ('Over the Horizon') 64bit _STATISTICS_WRITING_DATE_UTC : 2015-12-10 16:38:32 _STATISTICS_TAGS : BPS DURATION NUMBER_OF_FRAMES NUMBER_OF_BYTES Audio #1 ID : 2 Format : AC-3 Format/Info : Audio Coding 3 Mode extension : CM (complete main) Format settings, Endianness : Big Codec ID : A_AC3 Duration : 1h 35mn Bit rate mode : Constant Bit rate : 384 Kbps Channel(s) : 6 channels Channel positions : Front: L C R, Side: L R, LFE Sampling rate : 48.0 KHz Bit depth : 16 bits Compression mode : Lossy Stream size : 261 MiB (3%) Language : Russian Default : Yes Forced : No Audio #2 ID : 3 Format : AC-3 Format/Info : Audio Coding 3 Mode extension : CM (complete main) Format settings, Endianness : Big Codec ID : A_AC3 Duration : 1h 35mn Bit rate mode : Constant Bit rate : 640 Kbps Channel(s) : 6 channels Channel positions : Front: L C R, Side: L R, LFE Sampling rate : 48.0 KHz Bit depth : 16 bits Compression mode : Lossy Stream size : 435 MiB (6%) Language : English Default : No Forced : No Text #1 ID : 4 Format : UTF-8 Codec ID : S_TEXT/UTF8 Codec ID/Info : UTF-8 Plain Text Language : English Default : No Forced : No Text #2 ID : 5 Format : UTF-8 Codec ID : S_TEXT/UTF8 Codec ID/Info : UTF-8 Plain Text Title : SDH Language : English Default : No Forced : No Menu 00:00:00.000 : en:00:00:00.000 00:09:45.418 : en:00:09:45.418 00:19:33.506 : en:00:19:33.506 00:32:17.644 : en:00:32:17.644 00:39:41.087 : en:00:39:41.087 00:49:07.820 : en:00:49:07.820 01:01:43.199 : en:01:01:43.199 01:09:51.396 : en:01:09:51.396 01:19:26.929 : en:01:19:26.929 01:29:29.573 : en:01:29:29.573

Всего файлов в раздаче: 1 
Kak.poymat.monstra.2014.D.BDRip.1080p.mkv7.65 GB

Похожие раздачи по запросу - Как
Сегодня magnet Как спасти влюбленную женщину [S01] (2024) WEB-DLRip-AVC от Files-x 2.45 GB ↑ 0 ↓ 0
Сегодня magnet Как спасти влюбленную женщину [01-04 из 04] (2024) WEB-DL 1080p 5.27 GB ↑ 0 ↓ 1
Сегодня magnet Как спасти влюбленную женщину [S01] (2024) WEB-DLRip от Files-x 2.45 GB ↑ 0 ↓ 0
2024-04-13 magnet Как князю тьмы полюбить жену-эльфийку? / Maou no Ore ga Dorei Elf wo Yome ni Shitanda ga [01x01-03 из 12] (2024) WEBRip 1080p by VLDeshka | L | DreamCast 1.69 GB ↑ 0 ↓ 0
2024-04-13 magnet Как пойти на свидание с Билли Уолшем / How to Date Billy Walsh (2024) WEB-DL 1080p от New-Team | P | TVShows 7.06 GB ↑ 0 ↓ 1
2024-04-13 magnet Как пойти на свидание с Билли Уолшем / How to Date Billy Walsh (2024) WEB-DLRip от New-Team | P | TVShows 1.46 GB ↑ 1 ↓ 0
2024-04-09 magnet VA - Как бы дискотека 80-х часть 1 (2020) MP3 959.06 MB ↑ 0 ↓ 0

Комментарии


Зарегистрируйтесь чтобы добавить комментарий
Торрент клиент
byTorrent - программа для загрузки торрент-файлов.

Скачать byTorrent.exe (1,5 МБ)

Скачать byTorrent.zip (0,6 МБ)

Поддержи torrent.by
российских рублей
(300 российских рублей это 4$)

Обратная связь rss

End game ©