↑↓torrent.by
Поиск
Логин:  Регистрация
Пароль:

Дикая банда / Deuces Wild (2002) WEB-DLRip от ExKinoRay | P

download Скачать торрент-файл   magnet Магнитная ссылка Размер: 747.59 MB Добавлен: 2024-03-31 17:00
Пиры будут получены из сети DHT
Последний сидер был замечен 2024-04-08 20:47
Информация о фильме Название: Дикая банда Оригинальное название: Deuces Wild Год выхода: 2002 Жанр: драма, криминал Режиссер: Скотт Кэлверт В ролях: Стивен Дорфф, Мэтт Диллон, Джеймс Франко, Джонни Ноксвил, Норман Ридус, Винсент Пасторе.... О фильме: Бруклин, лето 1958-го года. Уличная банда, заправляемая братьями Леоном и Бобби, делает все, чтобы наркотики не проникли в их район. Когда-то их любимый брат скончался от передозировки, и сегодня они объявили жестокую войну наркоторговцам. Но есть другая банда, которая хочет сама контролировать улицы Бруклина... Страна: США, Германия Студия: Cinerenta Medienbeteiligungs KG, CineWild, Eternity Pictures, Presto Productions, The Antonia Company, Unity Productions Продолжительность: 01:36:17 Перевод: Профессиональный многоголосый Файл Кодек: XviD Качество: WEB-DLRip Видео: 688x288 (2.39:1), 23.976 fps, XviD build 67 ~945 kbps avg, 0.20 bit/pixel Звук: 48 kHz, MP3, 2 ch, ~128.00 kbps avg Субтитры: Отсутствуют
[+] MediaInfoGeneral Complete name : D:Deuces.Wild.2002.WEB-DLRip.ExKinoRay.avi Format : AVI Format/Info : Audio Video Interleave Format settings : BitmapInfoHeader / WaveFormatEx File size : 748 MiB Duration : 1 h 36 min Overall bit rate : 1 085 kb/s Frame rate : 23.976 FPS Writing application : Lavf58.29.100 Video ID : 0 Format : MPEG-4 Visual Format profile : Advanced Simple@L5 Format settings : BVOP1 / Custom Matrix Format settings, BVOP : 1 Format settings, QPel : No Format settings, GMC : No warppoints Format settings, Matrix : Custom Codec ID : XVID Codec ID/Hint : XviD Duration : 1 h 36 min Bit rate : 945 kb/s Width : 688 pixels Height : 288 pixels Display aspect ratio : 2.40:1 Frame rate : 23.976 (24000/1001) FPS Color space : YUV Chroma subsampling : 4:2:0 Bit depth : 8 bits Scan type : Progressive Compression mode : Lossy Bits/(Pixel*Frame) : 0.199 Stream size : 651 MiB (87%) Writing library : XviD 67 Audio ID : 1 Format : MPEG Audio Format version : Version 1 Format profile : Layer 3 Format settings : Joint stereo / MS Stereo Codec ID : 55 Codec ID/Hint : MP3 Duration : 1 h 36 min Bit rate mode : Constant Bit rate : 128 kb/s Channel(s) : 2 channels Sampling rate : 48.0 kHz Compression mode : Lossy Stream size : 88.1 MiB (12%) Alignment : Aligned on interleaves Interleave, duration : 24 ms (0.58 video frame) Writing library : LAMEiš»—íúÆ €û± 
[+] Скриншоты
Релиз от: Рип изготовил:

Всего файлов в раздаче: 1 
Deuces.Wild.2002.WEB-DLRip.ExKinoRay.avi747.59 MB

Похожие раздачи по запросу - Дикая
2024-03-30 magnet Дикая банда / Deuces Wild (2002) WEB-DL 1080p | P 3.44 GB ↑ 0 ↓ 0
2024-03-24 magnet Дикая река / The River Wild (1994) BDRip-AVC от New-Team | P 1.45 GB ↑ 0 ↓ 0
2024-01-04 magnet Дикая река / River Wild (2023) BDRip от MegaPeer | P 1.46 GB ↑ 0 ↓ 0
2023-10-09 magnet Ведьмак 3: Дикая Охота / The Witcher 3: Wild Hunt - Complete Edition [v 4.04 + DLCs] (2015/2022) PC | Repack от R.G. Механики 40.79 GB ↑ 1 ↓ 0

Комментарии


Зарегистрируйтесь чтобы добавить комментарий
Торрент клиент
byTorrent - программа для загрузки торрент-файлов.

Скачать byTorrent.exe (1,5 МБ)

Скачать byTorrent.zip (0,6 МБ)

Поддержи torrent.by
российских рублей
(300 российских рублей это 4$)

Обратная связь rss

End game ©