↑↓torrent.by
Поиск
Логин:  Регистрация
Пароль:

Американская ржавчина / American Rust [02x01-05 из 10] (2024) WEB-DL 1080p от Jaskier | P

download Скачать торрент-файл   magnet Магнитная ссылка Размер: 9.34 GB Добавлен: 2024-03-31 17:00
Пиры будут получены из сети DHT
Последний сидер был замечен 2024-04-01 12:22
Информация о фильме Название: Американская ржавчина Оригинальное название: American Rust Год выхода: 2024 Жанр: драма, криминал Режиссер: Джон Дал, Джим МакКэй, Дарнелл Мартин В ролях: Джефф Дэниелс, Мора Тирни, Дэвид Альварес, Julia Mayorga, Алекс Нюстадтер, Марк Пеллегрино, Роб Янг, Кайл Белтран, Луна Лорен Велес, Эмили Дэвис О фильме: Сюжет расскажет о шерифе из небольшого городка. Сына женщины, которую он любит, обвиняют в убийстве. Герою придётся сделать непростой выбор. Страна: США Студия: Boat Rocker Studios, Factory Underground, South Slope Pictures Продолжительность: ~01:00:00 Перевод: Профессиональный (многоголосый закадровый) Jaskier Файл Кодек: MKV Качество: WEB-DL 1080p Видео: AVC, 1920x1080 (16:9), 23.976 fps, ~3909 kbps Звук: Аудио 1: Русский, AC-3, 48 kHz, 6 ch, 384 kbps | Jaskier Аудио 2: Английский, E-AC-3, 48 kHz, 6 ch, 640 kbps Субтитры: Английские (SDH) Семпл
[+] MediaInfo General Unique ID : 189211465668105515474929621276577503570 (0x8E58CD815CB7AFA38028D643A2141952) Complete name : E:Torrent3.Body.Problem.S01.1080p.NF.WEB.H264-Jaskier3.Body.Problem.S01E01.1080p.WEB.H264-Jaskier.mkv Format : Matroska Format version : Version 4 File size : 2.48 GiB Duration : 1 h 0 min Overall bit rate mode : Variable Overall bit rate : 5 855 kb/s Frame rate : 23.976 FPS Encoded date : 2024-03-23 21:40:23 UTC Writing application : mkvmerge v6.6.0 ('The Edge Of The In Between') built on Dec 1 2013 17:55:00 Writing library : libebml v1.3.0 + libmatroska v1.4.1 Video ID : 1 Format : AVC Format/Info : Advanced Video Codec Format profile : Main@L4 Format settings : CABAC / 3 Ref Frames Format settings, CABAC : Yes Format settings, Reference frames : 3 frames Codec ID : V_MPEG4/ISO/AVC Duration : 1 h 0 min Bit rate mode : Variable Bit rate : 4 587 kb/s Nominal bit rate : 5 000 kb/s Maximum bit rate : 7 500 kb/s Width : 1 920 pixels Height : 1 080 pixels Display aspect ratio : 16:9 Frame rate mode : Constant Frame rate : 23.976 (24000/1001) FPS Original frame rate : 47.952 (48000/1001) FPS Color space : YUV Chroma subsampling : 4:2:0 Bit depth : 8 bits Scan type : Progressive Bits/(Pixel*Frame) : 0.092 Stream size : 1.94 GiB (78%) Writing library : x264 core 148 r2727 7d026e8 Encoding settings : cabac=1 / ref=3 / deblock=1:0:0 / analyse=0x1:0x111 / me=umh / subme=10 / psy=1 / psy_rd=1.00:0.00 / mixed_ref=1 / me_range=24 / chroma_me=1 / trellis=2 / 8x8dct=0 / cqm=0 / deadzone=21,11 / fast_pskip=1 / chroma_qp_offset=-2 / threads=6 / lookahead_threads=1 / sliced_threads=0 / nr=0 / decimate=1 / interlaced=0 / bluray_compat=0 / stitchable=1 / constrained_intra=0 / bframes=2 / b_pyramid=0 / b_adapt=2 / b_bias=0 / direct=3 / weightb=1 / open_gop=0 / weightp=2 / keyint=240 / keyint_min=121 / scenecut=0 / intra_refresh=0 / rc_lookahead=48 / rc=2pass / mbtree=1 / bitrate=5000 / ratetol=1.0 / qcomp=0.50 / qpmin=6 / qpmax=51 / qpstep=4 / cplxblur=20.0 / qblur=0.5 / vbv_maxrate=7500 / vbv_bufsize=10000 / nal_hrd=vbr / filler=0 / ip_ratio=1.40 / aq=1:1.00 Default : Yes Forced : No Audio #1 ID : 2 Format : AC-3 Format/Info : Audio Coding 3 Commercial name : Dolby Digital Codec ID : A_AC3 Duration : 1 h 0 min Bit rate mode : Constant Bit rate : 384 kb/s Channel(s) : 6 channels Channel layout : L R C LFE Ls Rs Sampling rate : 48.0 kHz Frame rate : 31.250 FPS (1536 SPF) Compression mode : Lossy Stream size : 166 MiB (7%) Title : Jaskier Language : Russian Service kind : Complete Main Default : Yes Forced : No Audio #2 ID : 3 Format : E-AC-3 JOC Format/Info : Enhanced AC-3 with Joint Object Coding Commercial name : Dolby Digital Plus with Dolby Atmos Codec ID : A_EAC3 Duration : 1 h 0 min Bit rate mode : Constant Bit rate : 768 kb/s Channel(s) : 6 channels Channel layout : L R C LFE Ls Rs Sampling rate : 48.0 kHz Frame rate : 31.250 FPS (1536 SPF) Compression mode : Lossy Stream size : 333 MiB (13%) Title : Original Language : English Service kind : Complete Main Default : No Forced : No Complexity index : 16 Number of dynamic objects : 15 Bed channel count : 1 channel Bed channel configuration : LFE Text #1 ID : 4 Format : UTF-8 Codec ID : S_TEXT/UTF8 Codec ID/Info : UTF-8 Plain Text Title : Russian Language : Russian Default : No Forced : No Text #2 ID : 5 Format : UTF-8 Codec ID : S_TEXT/UTF8 Codec ID/Info : UTF-8 Plain Text Title : English Language : English Default : No Forced : No Text #3 ID : 6 Format : UTF-8 Codec ID : S_TEXT/UTF8 Codec ID/Info : UTF-8 Plain Text Title : English Language : English Default : No Forced : No
[+] Скриншоты
Релиз от: Jaskier

Всего файлов в раздаче: 5 
american.rust.s02e01.1080p.web.h264-Jaskier.mkv2.04 GB
american.rust.s02e02.1080p.web.h264-Jaskier.mkv1.72 GB
american.rust.s02e03.1080p.web.h264-Jaskier.mkv1.61 GB
american.rust.s02e04.1080p.web.h264-Jaskier.mkv1.98 GB
american.rust.s02e05.1080p.web.h264-Jaskier.mkv1.99 GB

Похожие раздачи по запросу - Американская
2024-04-01 magnet Американская ржавчина / American Rust [S02] (2024) WEB-DL 1080p от Jaskier | P 18.51 GB ↑ 0 ↓ 1
2024-03-30 magnet Американская ржавчина / American Rust [S02] (2024) WEBRip от Kerob | L2 3.54 GB ↑ 0 ↓ 0
2024-03-30 magnet Американская ржавчина / American Rust [S02] (2024) WEBRip 1080p от Kerob | L2 20.52 GB ↑ 0 ↓ 1
2023-09-22 magnet Американская история ужасов / American Horror Story [12x01 из 07] (2023) WEBRip от Kerob | L2 280.30 MB ↑ 0 ↓ 0

Комментарии


Зарегистрируйтесь чтобы добавить комментарий
Торрент клиент
byTorrent - программа для загрузки торрент-файлов.

Скачать byTorrent.exe (1,5 МБ)

Скачать byTorrent.zip (0,6 МБ)

Поддержи torrent.by
российских рублей
(300 российских рублей это 4$)

Обратная связь rss

End game ©