↑↓torrent.by
Поиск
Логин:  Регистрация
Пароль:

OST - Clint Mansell - Love Lies Bleeding [24-bit Hi-Res, Original Score] (2024) FLAC

download Скачать торрент-файл   magnet Магнитная ссылка Размер: 347.17 MB Добавлен: 2024-03-31 17:00
Пиры будут получены из сети DHT
Последний сидер был замечен 2024-04-18 20:19
Название: Love Lies Bleeding (Original Score) Исполнитель: VA Год: 2024 Жанр: Soundtracks Издатель (лейбл): A24 Music Продолжительность: 00:35:33 Формат/Кодек: FLAC Тип рипа: Tracks Битрейт аудио: Lossless Разрядность: 24 Bit/48 kHz
[+] Трек-лист 01. Louville (00:07:38) 02. Turn Up The Heat (00:03:53) 03. Love Lies Bleeding (00:04:26) 04. Penalty = Prison (00:02:35) 05. Family Business (00:01:12) 06. Red Light (00:03:36) 07. Pain Is Weakness (00:07:43) 08. I Fucking Love You, You Idiot (00:04:30)
[+] DRM foobar2000 1.5.5 / Замер динамического диапазона (DR) 1.1.1 ------------------------------------------------------------------------------- Анализ: Clint Mansell / Love Lies Bleeding -------------------------------------------------------------------------------- DR Пики RMS Продолжительность трека -------------------------------------------------------------------------------- DR5 -0.50 дБ -9.53 дБ 7:38 01-Louville DR6 -0.50 дБ -9.89 дБ 3:53 02-Turn Up The Heat DR6 -0.50 дБ -8.92 дБ 4:26 03-Love Lies Bleeding DR5 -0.50 дБ -9.32 дБ 2:35 04-Penalty = Prison DR9 -2.17 дБ -14.40 дБ 1:12 05-Family Business DR7 -0.50 дБ -11.09 дБ 3:36 06-Red Light DR7 -0.50 дБ -10.55 дБ 7:43 07-Pain Is Weakness DR6 -0.50 дБ -9.43 дБ 4:30 08-I Fucking Love You, You Idiot -------------------------------------------------------------------------------- Количество треков: 8 Реальные значения DR: DR6 Частота: 48000 Гц Каналов: 2 Разрядность: 24 Битрейт: 1228 кбит/с Кодек: FLAC ================================================================================
Время раздачи: 24/7 (минимум до появления первых 3-5 скачавших, на раздачи не возвращаюсь) Первое правило участника файлообмена: "Скачал сам - дай скачать другому!"

Всего файлов в раздаче: 9 
01. Louville.flac75.95 MB
02. Turn Up The Heat.flac40.10 MB
03. Love Lies Bleeding.flac47.38 MB
04. Penalty = Prison.flac24.75 MB
05. Family Business.flac10.70 MB
06. Red Light.flac34.11 MB
07. Pain Is Weakness.flac74.57 MB
08. I Fucking Love You, You Idiot.flac39.57 MB
cover.jpg47.15 kB

Похожие раздачи по запросу - OST
Сегодня magnet Pepper Grinder + OST [Build 13834288 + DLC] (2024) PC | RePack от FitGirl 352.22 MB ↑ 0 ↓ 0
2024-04-15 magnet OST - Фоллаут / Fallout [Original Amazon Series Soundtrack] (2024) MP3 178.82 MB ↑ 1 ↓ 0
2024-04-15 magnet OST - Amy Winehouse - Back To Black: Songs From The Original Motion Picture (2024) MP3 199.85 MB ↑ 2 ↓ 0
2024-04-15 magnet OST - Nick Cave - Back to Black [24-bit Hi-Res, Original Motion Picture Score] (2024) FLAC 237.84 MB ↑ 0 ↓ 0
2024-04-13 magnet OST - Amy Winehouse: Возвращаюсь к нормальной жизни / Back To Black [Songs From The Original Motion Picture] (2024) FLAC 486.74 MB ↑ 0 ↓ 0
2024-04-02 magnet OST - Ludovico Einaudi - A Cielo Abierto [24-bit Hi-Res, Original Motion Picture Soundtrack] (2024) FLAC 474.15 MB ↑ 0 ↓ 0
2024-01-05 magnet OST - Бременские музыканты (2023) MP3 87.47 MB ↑ 0 ↓ 0

Комментарии


Зарегистрируйтесь чтобы добавить комментарий
Торрент клиент
byTorrent - программа для загрузки торрент-файлов.

Скачать byTorrent.exe (1,5 МБ)

Скачать byTorrent.zip (0,6 МБ)

Поддержи torrent.by
российских рублей
(300 российских рублей это 4$)

Обратная связь rss

End game ©