↑↓torrent.by
Поиск
Логин:  Регистрация
Пароль:

Должное правосудие / Надлежащее правосудие / Due Justice (2023) BDRip-AVC от DoMiNo & селезень | D

download Скачать торрент-файл   magnet Магнитная ссылка Размер: 1.35 GB Добавлен: 2024-03-31 17:00
Пиры будут получены из сети DHT
Последний сидер был замечен 2024-04-03 15:10
Информация о фильме Название: Должное правосудие / Надлежащее правосудие Оригинальное название: Due Justice Год выхода: 2023 Жанр: боевик, триллер, драма, криминал Режиссер: Хавьер Рейна В ролях: Келлан Латс, Джефф Фэйи, Эфрен Рамирес, Синтия Гири, Ману Интирэйми, Челси Лопес, Тонанцин Эспарза, Халли Шеперд, Нико Фостер, Рэймонд Пауэр О фильме: Любимая жена и родной брат адвоката Макса убиты, а маленькая дочь исчезла. Полицейские разводят руками, не имея никаких зацепок, лишь предполагая, что это ужасное преступление — дело рук организованной банды, торгующей детскими органами. Понимая, что жизнь дочери может оборваться в любую минуту, Макс, бывший спецназовец, приступает к собственной миссии по выслеживанию преступников. Детектив Сантьяго, назначенный на это дело, пытается остановить охваченного горем мужчину, понимая, что тот готов на все в своей жажде мести. Выпущено: США / Al Bravo Films, BondIt, Premiere Entertainment Group, Revisilagi Vfx Studio Продолжительность: 01:37:40 Перевод: Дублированный | Официальный | OKKO Субтитры: Русские (Forced), Английские (Full, SDH) Файл Формат: Matroska Качество: BDRip-AVC Видео: 1024x428 at 23.976 fps, x264@L4.1, ~1592 kbps Аудио: AC3, 6 ch, ~384 kbps - | Русский | Формат субтитров: softsub (SRT) ***Рип от: -=DoMiNo=-
[+] M/IGeneral Unique ID : 179617198463227963631818214103933888293 (0x8721039C5E0FA5E8EEB230DF5D8DA725) Complete name : I:Due.Justice.DUB.BDRip.x264.seleZen.mkv Format : Matroska Format version : Version 4 File size : 1.35 GiB Duration : 1 h 37 min Overall bit rate : 1 978 kb/s Frame rate : 23.976 FPS Movie name : Due.Justice.DUB.BDRip.x264.seleZen Encoded date : 2024-03-31 09:16:41 UTC Writing application : mkvmerge v83.0 ('Circle Of Friends') 64-bit Writing library : libebml v1.4.5 + libmatroska v1.7.1 Cover : Yes Attachments : cover.jpg / small_cover.jpg Video ID : 1 Format : AVC Format/Info : Advanced Video Codec Format profile : High@L4.1 Format settings : CABAC / 14 Ref Frames Format settings, CABAC : Yes Format settings, Reference : 14 frames Codec ID : V_MPEG4/ISO/AVC Duration : 1 h 37 min Bit rate : 1 592 kb/s Width : 1 024 pixels Height : 428 pixels Display aspect ratio : 2.40:1 Frame rate mode : Constant Frame rate : 23.976 (24000/1001) FPS Color space : YUV Chroma subsampling : 4:2:0 Bit depth : 8 bits Scan type : Progressive Bits/(Pixel*Frame) : 0.152 Stream size : 1.09 GiB (80%) Title : -=DoMiNo=- Writing library : x264 core 164 r3190 -DoMiNo Encoding settings : cabac=1 / ref=14 / deblock=1:-2:-2 / analyse=0x3:0x133 / me=umh / subme=10 / psy=1 / psy_rd=1.05:0.04 / mixed_ref=1 / me_range=32 / chroma_me=1 / trellis=2 / 8x8dct=1 / cqm=0 / deadzone=21,11 / fast_pskip=0 / chroma_qp_offset=-3 / threads=13 / lookahead_threads=3 / sliced_threads=0 / nr=0 / decimate=0 / interlaced=0 / bluray_compat=0 / constrained_intra=0 / bframes=12 / b_pyramid=2 / b_adapt=2 / b_bias=0 / direct=1 / weightb=1 / open_gop=0 / weightp=2 / keyint=240 / keyint_min=23 / scenecut=40 / intra_refresh=0 / rc_lookahead=60 / rc=crf / mbtree=0 / crf=16.8 / qcomp=0.60 / qpmin=0 / qpmax=69 / qpstep=4 / vbv_maxrate=50000 / vbv_bufsize=62500 / crf_max=0.0 / nal_hrd=none / filler=0 / ip_ratio=1.40 / pb_ratio=1.30 / aq=3:0.80 Language : English Default : Yes Forced : No Color range : Limited Color primaries : BT.709 Transfer characteristics : BT.709 Matrix coefficients : BT.709 Audio ID : 2 Format : AC-3 Format/Info : Audio Coding 3 Commercial name : Dolby Digital Codec ID : A_AC3 Duration : 1 h 37 min Bit rate mode : Constant Bit rate : 384 kb/s Channel(s) : 6 channels Channel layout : L R C LFE Ls Rs Sampling rate : 48.0 kHz Frame rate : 31.250 FPS (1536 SPF) Compression mode : Lossy Stream size : 268 MiB (19%) Title : DUB Language : Russian Service kind : Complete Main Default : Yes Forced : No Text #1 ID : 3 Format : UTF-8 Codec ID : S_TEXT/UTF8 Codec ID/Info : UTF-8 Plain Text Duration : 1 h 33 min Bit rate : 3 b/s Frame rate : 0.007 FPS Count of elements : 38 Stream size : 2.13 KiB (0%) Title : Forced Language : Russian Default : No Forced : No Text #2 ID : 4 Format : UTF-8 Codec ID : S_TEXT/UTF8 Codec ID/Info : UTF-8 Plain Text Duration : 1 h 31 min Bit rate : 51 b/s Frame rate : 0.229 FPS Count of elements : 1262 Stream size : 34.5 KiB (0%) Title : Full Language : English Default : No Forced : No Text #3 ID : 5 Format : UTF-8 Codec ID : S_TEXT/UTF8 Codec ID/Info : UTF-8 Plain Text Duration : 1 h 36 min Bit rate : 59 b/s Frame rate : 0.278 FPS Count of elements : 1616 Stream size : 42.3 KiB (0%) Title : SDH Language : English Default : No Forced : No Menu 00:00:00.000 : Глава 1 00:09:03.459 : Глава 2 00:16:49.216 : Глава 3 00:29:05.285 : Глава 4 00:34:08.546 : Глава 5 00:42:23.332 : Глава 6 00:51:56.238 : Глава 7 01:00:55.777 : Глава 8 01:07:03.477 : Глава 9 01:16:38.760 : Глава 10 01:27:42.465 : Глава 11 01:35:09.995 : Глава 12 01:37:39.520 : Глава 13
Релиз: Присоединяйся к: Кликай на баннеры.

Всего файлов в раздаче: 1 
Due.Justice.DUB.BDRip.x264.seleZen.mkv1.35 GB

Похожие раздачи по запросу - Должное
2024-04-04 magnet Должное правосудие / Надлежащее правосудие / Due Justice (2023) BDRip от toxics & селезень | D 1.46 GB ↑ 0 ↓ 0
2024-04-01 magnet Должное правосудие / Надлежащее правосудие / Due Justice (2023) BDRip 720p от DoMiNo & селезень | D 3.93 GB ↑ 0 ↓ 0
2024-03-31 magnet Должное правосудие / Due Justice (2023) BDRip 720p от MegaPeer | D 3.46 GB ↑ 0 ↓ 0
2024-03-31 magnet Должное правосудие / Due Justice (2023) BDRip 1080p от MegaPeer | D 7.84 GB ↑ 0 ↓ 0
2024-03-31 magnet Должное правосудие / Due Justice (2023) BDRip от MegaPeer | D 1К1.46 GB ↑ 0 ↓ 0
2024-03-19 magnet Должное правосудие / Due Justice (2023) WEB-DL 1080p | D 4.98 GB ↑ 1 ↓ 0
2024-03-18 magnet Должное правосудие / Надлежащее правосудие / Due Justice (2023) WEB-DLRip-AVC от DoMiNo & селезень | D 1.24 GB ↑ 0 ↓ 0

Комментарии


Зарегистрируйтесь чтобы добавить комментарий
Торрент клиент
byTorrent - программа для загрузки торрент-файлов.

Скачать byTorrent.exe (1,5 МБ)

Скачать byTorrent.zip (0,6 МБ)

Поддержи torrent.by
российских рублей
(300 российских рублей это 4$)

Обратная связь rss

End game ©