↑↓torrent.by
Поиск
Логин:  Регистрация
Пароль:

Место встречи изменить нельзя (1979) BDRip-HEVC 1080p от RIPS CLUB

download Скачать торрент-файл   magnet Магнитная ссылка Размер: 27.92 GB Раздают: 1 Качают: 0 Добавлен: 2024-03-31 17:00
Пиры будут получены из сети DHT
Последний сидер был замечен сегодня в 22:25
Название: Место встречи изменить нельзя Год производства: 1979 Производство: СССР / Гостелерадио СССР, Одесская киностудия Жанр: криминал, детектив, боевик, драма Режиссёр: Станислав Говорухин В ролях: Владимир Высоцкий, Владимир Конкин, Сергей Юрский, Виктор Павлов, Наталья Фатеева, Леонид Куравлёв, Светлана Светличная, Александр Белявский, Евгений Евстигнеев, Армен Джигарханян О фильме: Убийства, засады, погони, перестрелки на фоне послевоенной Москвы. Сотрудники МУРа против таинственной и неуловимой банды «Чёрная кошка». Демобилизовавшийся офицер разведки Володя Шарапов начинает работать в отделе по борьбе с бандитизмом. Одно из первых дел, в расследовании которых он участвует, — убийство гражданки Ларисы Груздевой. Продолжительность: 01:09:34 + 01:13:40 + 01:09:11 + 01:17:39 + 01:28:20 Качество: BDRip-HEVC 1080p Кодек: HEVC (x265) Видео: 1480x1080, ~11.3 Mbps, HEVC (Main10@L.4.1@High) 10 бит Звук: Аудио: AC3, 2 ch, 224 Kbps - Русский, DVD (КП & ВГТРК) Субтитры: русские, английские Навигация по главам: Есть
[+] Лог (x265 info) + Mediainfo x265 : frame I: 532, Avg QP:17.96 kb/s: 24296.20 x265 : frame P: 22019, Avg QP:19.15 kb/s: 19785.91 x265 : frame B: 104653, Avg QP:21.15 kb/s: 9493.51 x265 : Weighted P-Frames: Y:25.2% UV:21.6% x265 : Weighted B-Frames: Y:17.3% UV:13.3% x265 : encoded 127204 frames in 92344.95s (1.38 fps), 11337.03 kb/s, Avg QP:20.79 Общее Уникальный идентификатор : 197003586506854974385532274479266337266 (0x943582B9565BACE01CC41B9383D111F2) Полное имя : \.Место встречи изменить нельзяМесто.встречи.изменить.нельзя.E05.BDRip-HEVC.1080p.mkv Формат : Matroska Версия формата : Version 4 Размер файла : 7,14 Гбайт Продолжительность : 1 ч. 28 мин. Общий битрейт : 11,6 Мбит/сек Частота кадров : 24,000 кадра/сек Название фильма : Место.встречи.изменить.нельзя.E05.BDRip-HEVC. / 5 серия Имя трека/Расположение : 1 Кодирование выполнил : OldGamer Тип содержимого : TV Show Описание : На совещании в МУРе Жеглов решает: хотя связь с Шараповым и потеряна, тот, как человек военный, поймёт, что оговорённое место и время операции изменять нельзя. Дата выпуска : 1979-11-16 Дата записи : 1979-11-16 Программа кодирования : mkvmerge v83.0 ('Circle Of Friends') 64-bit Библиотека кодирования : libebml v1.4.5 + libmatroska v1.7.1 / xvid4psp5 Обложка : Yes Attachments : cover.jpg ACTOR : Vladimir Vysotsky, Vladimir Konkin, Aleksandr Belyavskiy, Armen Dzhigarkhanyan, Sergei Yursky, Tatyana Tkach, Viktor Pavlov, Leonid Kuravlyov, Evgeniy Evstigneev, Larisa Udovichenko, Stanislav Sadalskiy, Valeriya Zaklunnaya, Zinoviy Gerdt, Aleksandr ... ARTIST : Vladimir Vysotsky, Vladimir Konkin, Aleksandr Belyavskiy, Armen Dzhigarkhanyan, Sergei Yursky, Tatyana Tkach, Viktor Pavlov, Leonid Kuravlyov, Evgeniy Evstigneev, Larisa Udovichenko, Stanislav Sadalskiy, Valeriya Zaklunnaya, Zinoviy Gerdt, Aleksandr ... DIRECTOR : Stanislav Govorukhin EPISODE.PART_NUM : 5 GENRE : детектив, криминал, Боевик и Приключения, драма SCREENPLAY_BY : Georgiy Vayner, Arkadiy Vayner SEASON.PART_NUM : 1 SUMMARY : На совещании в МУРе Жеглов решает: хотя связь с Шараповым и потеряна, тот, как человек военный, поймёт, что оговорённое место и время операции изменять нельзя. SYNOPSIS : На совещании в МУРе Жеглов решает: хотя связь с Шараповым и потеряна, тот, как человек военный, поймёт, что оговорённое место и время операции изменять нельзя, и потому всё-таки устраивает засаду в магазине, привозя туда Фокса «для следственного эксперимента». Но как спасти Шарапова? Оперативники МУРа решают, что приклеенная фотография возлюбленной Шарапова на дверь кладовки сможет подсказать ему что делать. Когда бандиты заходят в подвал, гаснет свет. Шарапов укрывается в кладовке, банда окружена и сдаётся милиции. Фронтовой товарищ Шарапова совершает попытку бегства, но его убивает Жеглов. WRITTEN_BY : Georgiy Vayner, Arkadiy Vayner Видео Идентификатор : 1 Формат : HEVC Формат/Информация : High Efficiency Video Coding Профиль формата : Main 10@L4.1@High Идентификатор кодека : V_MPEGH/ISO/HEVC Продолжительность : 1 ч. 28 мин. Битрейт : 11,3 Мбит/сек Ширина : 1 480 пикселей Высота : 1 080 пикселей Соотношение сторон дисплея : 1,370 Режим частоты кадров : Постоянный Частота кадров : 24,000 кадра/сек Цветовое пространство : YUV Цветовая субдискретизация : 4:2:0 Битовая глубина : 10 бит Бит/(Пиксели*Кадры) : 0.296 Размер потока : 7,00 Гбайт (98%) Библиотека кодирования : x265 3.5+110-8ee01d45b: 10bit Параметры библиотеки кодирования : cpuid=1111039 / frame-threads=4 / numa-pools=16 / wpp / no-pmode / no-pme / no-psnr / no-ssim / log-level=2 / input-csp=1 / input-res=1480x1080 / interlace=0 / total-frames=127204 / level-idc=41 / high-tier=1 / uhd-bd=0 / ref=5 / no-allow-non-conformance / no-repeat-headers / annexb / no-aud / no-eob / no-eos / no-hrd / info / hash=0 / temporal-layers=0 / open-gop / min-keyint=23 / keyint=240 / gop-lookahead=0 / bframes=16 / b-adapt=2 / b-pyramid / bframe-bias=0 / rc-lookahead=40 / lookahead-slices=0 / scenecut=40 / no-hist-scenecut / radl=0 / no-splice / no-intra-refresh / ctu=32 / min-cu-size=8 / rect / amp / max-tu-size=32 / tu-inter-depth=4 / tu-intra-depth=4 / limit-tu=1 / rdoq-level=2 / dynamic-rd=0.00 / no-ssim-rd / signhide / no-tskip / nr-intra=0 / nr-inter=0 / no-constrained-intra / no-strong-intra-smoothing / max-merge=5 / limit-refs=3 / no-limit-modes / me=3 / subme=7 / merange=57 / temporal-mvp / no-frame-dup / no-hme / weightp / weightb / no-analyze-src-pics / deblock=-2:-2 / no-sao / no-sao-non-deblock / rd=6 / selective-sao=0 / no-early-skip / no-rskip / no-fast-intra / no-tskip-fast / no-cu-lossless / b-intra / no-splitrd-skip / rdpenalty=0 / psy-rd=2.00 / psy-rdoq=1.00 / no-rd-refine / no-lossless / cbqpoffs=0 / crqpoffs=0 / rc=crf / crf=19.9 / qcomp=0.60 / qpstep=4 / stats-write=0 / stats-read=0 / vbv-maxrate=50000 / vbv-bufsize=50000 / vbv-init=0.9 / min-vbv-fullness=50.0 / max-vbv-fullness=80.0 / crf-max=0.0 / crf-min=0.0 / ipratio=1.40 / pbratio=1.30 / aq-mode=3 / aq-strength=1.00 / no-cutree / zone-count=0 / no-strict-cbr / qg-size=32 / no-rc-grain / qpmax=69 / qpmin=0 / no-const-vbv / sar=1 / overscan=0 / videoformat=5 / range=0 / colorprim=2 / transfer=2 / colormatrix=2 / chromaloc=0 / display-window=0 / cll=0,0 / min-luma=0 / max-luma=1023 / log2-max-poc-lsb=8 / vui-timing-info / vui-hrd-info / slices=1 / no-opt-qp-pps / no-opt-ref-list-length-pps / no-multi-pass-opt-rps / scenecut-bias=0.00 / no-opt-cu-delta-qp / no-aq-motion / no-hdr10 / no-hdr10-opt / no-dhdr10-opt / no-idr-recovery-sei / analysis-reuse-level=0 / analysis-save-reuse-level=0 / analysis-load-reuse-level=0 / scale-factor=0 / refine-intra=0 / refine-inter=0 / refine-mv=1 / refine-ctu-distortion=0 / no-limit-sao / ctu-info=0 / no-lowpass-dct / refine-analysis-type=0 / copy-pic=1 / max-ausize-factor=1.0 / no-dynamic-refine / no-single-sei / no-hevc-aq / no-svt / no-field / qp-adaptation-range=1.00 / scenecut-aware-qp=0conformance-window-offsets / right=0 / bottom=0 / decoder-max-rate=0 / no-vbv-live-multi-pass / no-mcstf / no-sbrc Язык : Русский По умолчанию : Да Принудительно : Нет Аудио Идентификатор : 2 Формат : AC-3 Формат/Информация : Audio Coding 3 Коммерческое название : Dolby Digital Идентификатор кодека : A_AC3 Продолжительность : 1 ч. 28 мин. Вид битрейта : Постоянный Битрейт : 224 Кбит/сек Канал(-ы) : 2 канала Расположение каналов : L R Частота дискретизации : 48,0 КГц Частота кадров : 31,250 кадров/сек (1536 SPF) Метод сжатия : С потерями Размер потока : 142 Мбайт (2%) Заголовок : DVD (КП & ВГТРК) Язык : Русский Вид сервиса : Complete Main По умолчанию : Да Принудительно : Нет Текст #1 Идентификатор : 3 Формат : UTF-8 Идентификатор кодека : S_TEXT/UTF8 Идентификатор кодека/Информация : UTF-8 Plain Text Продолжительность : 1 ч. 23 мин. Битрейт : 81 бит/сек Частота кадров : 0,148 кадр/сек Число элементов : 741 Размер потока : 49,7 КиБ (0%) Заголовок : DVD (Twister) Язык : Русский По умолчанию : Нет Принудительно : Нет Текст #2 Идентификатор : 4 Формат : UTF-8 Идентификатор кодека : S_TEXT/UTF8 Идентификатор кодека/Информация : UTF-8 Plain Text Продолжительность : 1 ч. 23 мин. Битрейт : 47 бит/сек Частота кадров : 0,148 кадр/сек Число элементов : 741 Размер потока : 29,0 КиБ (0%) Заголовок : DVD (Twister) Язык : Английский По умолчанию : Нет Принудительно : Нет Меню 00:00:00.000 : en:00:00:00.000 00:02:33.125 : en:00:02:33.125 00:15:57.667 : en:00:15:57.667 00:33:22.833 : en:00:33:22.833 00:52:02.667 : en:00:52:02.667 01:09:09.333 : en:01:09:09.333
[+] Скриншоты
Релиз от: OldGamer

Всего файлов в раздаче: 5 
Место.встречи.изменить.нельзя.E01.BDRip-HEVC.1080p.mkv4.42 GB
Место.встречи.изменить.нельзя.E02.BDRip-HEVC.1080p.mkv6.29 GB
Место.встречи.изменить.нельзя.E03.BDRip-HEVC.1080p.mkv5.61 GB
Место.встречи.изменить.нельзя.E04.BDRip-HEVC.1080p.mkv4.46 GB
Место.встречи.изменить.нельзя.E05.BDRip-HEVC.1080p.mkv7.14 GB

Похожие раздачи по запросу - Место
2024-03-21 magnet Галина Кизима - Правильные грядки. Как создать идеальное место для выращивания урожая (2023) FB2 11.54 MB ↑ 1 ↓ 0
2021-08-13 magnet Тихое место 2 / A Quiet Place Part II (2021) BDRip 1080p от селезень | Лицензия 12.58 GB ↑ 0 ↓ 0

Комментарии


Зарегистрируйтесь чтобы добавить комментарий
Торрент клиент
byTorrent - программа для загрузки торрент-файлов.

Скачать byTorrent.exe (1,5 МБ)

Скачать byTorrent.zip (0,6 МБ)

Поддержи torrent.by
российских рублей
(300 российских рублей это 4$)

Обратная связь rss

End game ©