↑↓torrent.by
Поиск
Логин:  Регистрация
Пароль:

Рони, дочь разбойника / Ronja Rövardotter / Ronja the Robber's Daughter [S01] (2024) WEB-DL 720p | HDrezka Studio

download Скачать торрент-файл   magnet Магнитная ссылка Размер: 9.31 GB Раздают: 0 Качают: 1 Добавлен: 2024-03-31 17:00
Пиры будут получены из сети DHT
Последний сидер был замечен 2024-04-07 15:20
Информация о фильме Название: Рони, дочь разбойника Оригинальное название: Ronja Rövardotter / Ronja the Robber's Daughter Год выхода: 2024 Жанр: Фэнтези, приключения, семейный Режиссер: Лиза Джеймс-Ларссон В ролях: Керстин Линден, Як Бергенхольц Хенриксон, Кристофер Вагелин, Криста Косонен, Сверрир Гуднасон, Йохан Ульвесон, Пернилла Аугуст, Ланселот Нкубе, Вера Витали, Пер Лассон, Маттиас Сильвелл, Омид Кансари, Бьёрн Эльгерд, Иса Ауифиа, Йоаким Наттерквист О фильме: Экранизация одноименной повести Астрид Линдгрен. Сериал рассказывает о приключениях девочки по имени Ронья, которая родилась грозовой ночью в средневековом скандинавском замке в окружении родителей и любящей банды разбойников. Ронья вырастает смелой и бесстрашной и однажды обнаруживает, что окружающий лес может быть прекрасным, волшебным, а иногда и опасным местом, где обитают странные существа. Но когда юная героиня встречает сына заклятого врага своего отца, Бирка, это становится началом темной вражды между бандами. Между героями завязывается крепкая дружба и Ронья с Бирком решают сбежать в лес, чтобы жить самостоятельно без помощи взрослых... Страна: Швеция Продолжительность: ~00:45:00 серия Перевод: Профессиональный (многоголосый закадровый) HDrezka Studio Файл Кодек: MKV Качество: WEB-DL 720p Видео: AVC, 1280x720 (16:9),3288 kbps (0.143 b/px), 25.000 fps Звук: Аудио #1: AC3, 192 kbps (CBR), 48.0 KHz , 2 ch, Russian - HDRezka Studio Аудио #2: E-AC-3, 768 kbps (CBR), 48.0 KHz, 6 ch, Swedish Аудио #3: E-AC-3, 640 kbps (CBR), 48.0 KHz, 6 ch, English Субтитры: Русские (Forced, Full), шведские, английские РЕКЛАМЫ НЕТ
[+] MediaInfoОбщее Уникальный идентификатор : 308009885442511644997242032534770780533 (0xE7B88BD0C154AA0316A713A3FD0D8975) Полное имя : E:СЕРИАЛЫRonja.the.Robber's.Daughter.S01.720pRonja.the.Robbers.Daughter.S01E01.720p.mkv Формат : Matroska Версия формата : Version 4 Размер файла : 1,56 Гбайт Продолжительность : 45 м. 42 с. Общий поток : 4 890 Кбит/сек Частота кадров : 25,000 кадров/сек Дата кодирования : 2024-03-31 09:00:58 UTC Программа кодирования : mkvmerge v45.0.0 ('Heaven in Pennies') 64-bit Библиотека кодирования : libebml v1.3.10 + libmatroska v1.5.2 Видео Идентификатор : 1 Формат : AVC Формат/Информация : Advanced Video Codec Профиль формата : High@L5.1 Настройки формата : CABAC / 4 Ref Frames Параметр CABAC формата : Да Параметр RefFrames формата : 4 кадра Идентификатор кодека : V_MPEG4/ISO/AVC Продолжительность : 45 м. 42 с. Битрейт : 3 288 Кбит/сек Номинальный битрейт : 3 500 Кбит/сек Ширина : 1 280 пикселей Высота : 720 пикселей Соотношение сторон : 16:9 Режим частоты кадров : Постоянный Частота кадров : 25,000 кадров/сек Цветовое пространство : YUV Субдискретизация насыщенности : 4:2:0 Битовая глубина : 8 бит Тип развёртки : Прогрессивная Бит/(Пиксели*Кадры) : 0.143 Размер потока : 1,05 Гбайт (67%) Библиотека кодирования : x264 core 164 r3106 eaa68fa Настройки программы : cabac=1 / ref=3 / deblock=1:0:0 / analyse=0x3:0x113 / me=hex / subme=7 / psy=1 / psy_rd=1.00:0.00 / mixed_ref=1 / me_range=16 / chroma_me=1 / trellis=1 / 8x8dct=1 / cqm=0 / deadzone=21,11 / fast_pskip=1 / chroma_qp_offset=-2 / threads=22 / lookahead_threads=3 / sliced_threads=0 / nr=0 / decimate=1 / interlaced=0 / bluray_compat=0 / constrained_intra=0 / bframes=3 / b_pyramid=2 / b_adapt=1 / b_bias=0 / direct=1 / weightb=1 / open_gop=0 / weightp=2 / keyint=250 / keyint_min=25 / scenecut=40 / intra_refresh=0 / rc_lookahead=40 / rc=abr / mbtree=1 / bitrate=3500 / ratetol=1.0 / qcomp=0.60 / qpmin=0 / qpmax=69 / qpstep=4 / ip_ratio=1.40 / aq=1:1.00 Default : Да Forced : Нет Цветовой диапазон : Limited Аудио #1 Идентификатор : 2 Формат : AC-3 Формат/Информация : Audio Coding 3 Коммерческое название : Dolby Digital Идентификатор кодека : A_AC3 Продолжительность : 45 м. 42 с. Вид битрейта : Постоянный Битрейт : 192 Кбит/сек Каналы : 2 канала Channel layout : L R Частота : 48,0 КГц Частота кадров : 31,250 кадров/сек (1536 SPF) Метод сжатия : С потерями Размер потока : 62,8 Мбайт (4%) Заголовок : HDR Язык : Russian Service kind : Complete Main Default : Да Forced : Нет Аудио #2 Идентификатор : 3 Формат : E-AC-3 JOC Формат/Информация : Enhanced AC-3 with Joint Object Coding Коммерческое название : Dolby Digital Plus with Dolby Atmos Идентификатор кодека : A_EAC3 Продолжительность : 45 м. 42 с. Вид битрейта : Постоянный Битрейт : 768 Кбит/сек Каналы : 6 каналов Channel layout : L R C LFE Ls Rs Частота : 48,0 КГц Частота кадров : 31,250 кадров/сек (1536 SPF) Метод сжатия : С потерями Размер потока : 251 Мбайт (16%) Язык : Swedish Service kind : Complete Main Default : Нет Forced : Нет Complexity index : 16 Number of dynamic objects : 15 Bed channel count : 1 канал Bed channel configuration : LFE Аудио #3 Идентификатор : 4 Формат : E-AC-3 Формат/Информация : Enhanced AC-3 Коммерческое название : Dolby Digital Plus Идентификатор кодека : A_EAC3 Продолжительность : 45 м. 42 с. Вид битрейта : Постоянный Битрейт : 640 Кбит/сек Каналы : 6 каналов Channel layout : L R C LFE Ls Rs Частота : 48,0 КГц Частота кадров : 31,250 кадров/сек (1536 SPF) Метод сжатия : С потерями Размер потока : 209 Мбайт (13%) Язык : English Service kind : Complete Main Default : Нет Forced : Нет Текст #1 Идентификатор : 5 Формат : UTF-8 Идентификатор кодека : S_TEXT/UTF8 Идентификатор кодека/Информация : UTF-8 Plain Text Продолжительность : 30 м. 47 с. Битрейт : 3 бит/сек Частота кадров : 0,007 кадр/сек Count of elements : 13 Размер потока : 863 байт (0%) Заголовок : fors Язык : Russian Default : Да Forced : Нет Текст #2 Идентификатор : 6 Формат : UTF-8 Идентификатор кодека : S_TEXT/UTF8 Идентификатор кодека/Информация : UTF-8 Plain Text Продолжительность : 43 м. 41 с. Битрейт : 40 бит/сек Частота кадров : 0,117 кадр/сек Count of elements : 307 Размер потока : 13,1 Кбайт (0%) Язык : Russian Default : Нет Forced : Нет Текст #3 Идентификатор : 7 Формат : UTF-8 Идентификатор кодека : S_TEXT/UTF8 Идентификатор кодека/Информация : UTF-8 Plain Text Продолжительность : 42 м. 5 с. Битрейт : 28 бит/сек Частота кадров : 0,112 кадр/сек Count of elements : 282 Размер потока : 8,78 Кбайт (0%) Язык : Swedish Default : Нет Forced : Нет Текст #4 Идентификатор : 8 Формат : UTF-8 Идентификатор кодека : S_TEXT/UTF8 Идентификатор кодека/Информация : UTF-8 Plain Text Продолжительность : 44 м. 8 с. Битрейт : 36 бит/сек Частота кадров : 0,157 кадр/сек Count of elements : 416 Размер потока : 11,8 Кбайт (0%) Заголовок : SDH Язык : Swedish Default : Нет Forced : Нет Текст #5 Идентификатор : 9 Формат : UTF-8 Идентификатор кодека : S_TEXT/UTF8 Идентификатор кодека/Информация : UTF-8 Plain Text Продолжительность : 42 м. 5 с. Битрейт : 27 бит/сек Частота кадров : 0,121 кадр/сек Count of elements : 306 Размер потока : 8,42 Кбайт (0%) Язык : English Default : Нет Forced : Нет Текст #6 Идентификатор : 10 Формат : UTF-8 Идентификатор кодека : S_TEXT/UTF8 Идентификатор кодека/Информация : UTF-8 Plain Text Продолжительность : 57 с. 160 мс. Битрейт : 11 бит/сек Частота кадров : 0,035 кадр/сек Count of elements : 2 Размер потока : 82,0 байт (0%) Заголовок : Dub | Forced Язык : English Default : Нет Forced : Нет Текст #7 Идентификатор : 11 Формат : UTF-8 Идентификатор кодека : S_TEXT/UTF8 Идентификатор кодека/Информация : UTF-8 Plain Text Продолжительность : 42 м. 5 с. Битрейт : 27 бит/сек Частота кадров : 0,125 кадр/сек Count of elements : 316 Размер потока : 8,41 Кбайт (0%) Заголовок : Dub Язык : English Default : Нет Forced : Нет Текст #8 Идентификатор : 12 Формат : UTF-8 Идентификатор кодека : S_TEXT/UTF8 Идентификатор кодека/Информация : UTF-8 Plain Text Продолжительность : 42 м. 44 с. Битрейт : 41 бит/сек Частота кадров : 0,206 кадр/сек Count of elements : 529 Размер потока : 12,9 Кбайт (0%) Заголовок : Dub | SDH Язык : English Default : Нет Forced : Нет
[+] Скриншоты

Всего файлов в раздаче: 6 
Ronja.the.Robbers.Daughter.S01E01.720p.mkv1.56 GB
Ronja.the.Robbers.Daughter.S01E02.720p.mkv1.53 GB
Ronja.the.Robbers.Daughter.S01E03.720p.mkv1.66 GB
Ronja.the.Robbers.Daughter.S01E04.720p.mkv1.54 GB
Ronja.the.Robbers.Daughter.S01E05.720p.mkv1.46 GB
Ronja.the.Robbers.Daughter.S01E06.720p.mkv1.55 GB

Комментарии


Зарегистрируйтесь чтобы добавить комментарий
Торрент клиент
byTorrent - программа для загрузки торрент-файлов.

Скачать byTorrent.exe (1,5 МБ)

Скачать byTorrent.zip (0,6 МБ)

Поддержи torrent.by
российских рублей
(300 российских рублей это 4$)

Обратная связь rss

End game ©