↑↓torrent.by
Поиск
Логин:  Регистрация
Пароль:

Silver Convention - Save Me [Remaster, 24Bit, Hi-Res] (1975/2024) FLAC

download Скачать торрент-файл   magnet Магнитная ссылка Размер: 826.95 MB Добавлен: 2024-04-01 05:00
Пиры будут получены из сети DHT
Последний сидер был замечен вчера в 18:27
Silver Convention - Save Me (1975) Remaster, 2024, Omnivore Recordings Жанр: Disco Издание: Omnivore Recordings Источник: ссылка Продолжительность: 01:10:19 Кодек: FLAC 24/44.1 Битрейт: Lossless|WEB-DL Тип рипа: tracks Треклист: 01 - Save Me (00:04:16) 02 - I Like It (00:04:56) 03 - Fly, Robin, Fly (00:05:32) 04 - Tiger Baby (00:04:14) 05 - Son Of A Gun (00:03:54) 06 - Always Another Girl (00:03:59) 07 - Chains Of Love (00:04:07) 08 - Heart Of Stone (00:04:06) 09 - Please Don't Change The Chords Of This Song (00:04:58) 10 - Fly, Robin, Fly ((12 Version) ) (00:07:44) 11 - Tiger Baby ((12 Version) ) (00:08:49) 12 - Always Another Girl ((US Promo 12) ) (00:05:34) 13 - I Like It ((Special Disco Edit) ) (00:03:37) 14 - Save Me Again () (00:04:26)
[+] Дополнительная информация: Наличие сканов: front + booklet
[+] Отчёт Dynamic Range Meter: foobar2000 1.6.11 / Dynamic Range Meter 1.1.1 log date: 2024-03-29 08:34:46 -------------------------------------------------------------------------------- Analyzed: Silver Convention / Save Me -------------------------------------------------------------------------------- DR Peak RMS Duration Track -------------------------------------------------------------------------------- DR11 -0.54 dB -12.39 dB 4:17 01-Save Me DR12 -0.55 dB -13.76 dB 4:56 02-I Like It DR12 -0.54 dB -13.50 dB 5:33 03-Fly, Robin, Fly DR11 -0.82 dB -13.70 dB 4:15 04-Tiger Baby DR12 -0.57 dB -13.52 dB 3:54 05-Son Of A Gun DR12 -0.74 dB -13.94 dB 3:59 06-Always Another Girl DR12 -0.70 dB -13.83 dB 4:08 07-Chains Of Love DR13 -0.55 dB -14.81 dB 4:06 08-Heart Of Stone DR12 -0.54 dB -14.93 dB 4:59 09-Please Don't Change The Chords Of This Song DR12 -0.55 dB -13.46 dB 7:45 10-Fly, Robin, Fly ((12" Version) ) DR12 -0.57 dB -13.48 dB 8:50 11-Tiger Baby ((12" Version) ) DR12 -0.53 dB -13.49 dB 5:35 12-Always Another Girl ((US Promo 12") ) DR12 -0.54 dB -13.63 dB 3:37 13-I Like It ((Special Disco Edit) ) DR12 -0.54 dB -13.94 dB 4:27 14-Save Me Again () -------------------------------------------------------------------------------- Number of tracks: 14 Official DR value: DR12 Samplerate: 44100 Hz Channels: 2 Bits per sample: 24 Bitrate: 1619 kbps Codec: FLAC ================================================================================

Всего файлов в раздаче: 16 
01 - Save Me.flac51.48 MB
02 - I Like It.flac58.87 MB
03 - Fly, Robin, Fly.flac64.82 MB
04 - Tiger Baby.flac50.26 MB
05 - Son Of A Gun.flac43.94 MB
06 - Always Another Girl.flac48.11 MB
07 - Chains Of Love.flac50.05 MB
08 - Heart Of Stone.flac45.62 MB
09 - Please Don't Change The Chords Of This Song.flac53.90 MB
10 - Fly, Robin, Fly ((12 Version) [Bonus Track]).flac92.03 MB
Показать все файлы

Комментарии


Зарегистрируйтесь чтобы добавить комментарий
Торрент клиент
byTorrent - программа для загрузки торрент-файлов.

Скачать byTorrent.exe (1,5 МБ)

Скачать byTorrent.zip (0,6 МБ)

Поддержи torrent.by
российских рублей
(300 российских рублей это 4$)

Обратная связь rss

End game ©