↑↓torrent.by
Поиск
Логин:  Регистрация
Пароль:

Выжившие: Сено [S01] (2021) WEB-DLRip-AVC от Generalfilm | КПК

download Скачать торрент-файл   magnet Магнитная ссылка Размер: 254.45 MB Добавлен: 2024-04-01 05:00
Пиры будут получены из сети DHT
Последний сидер был замечен 2024-04-03 10:30
Информация о фильме Оригинальное название: Выжившие: Сено Год выпуска: 2021 Жанр: Фантастика, триллер, драма Режиссер: Евгений Емелин В ролях: Александр Коротков, Артём Шевченко, Софья Резник, Светлана Мамрешева, Станислав Соломатин, Владимир Голицын, Фёдор Лещев, Денис Моисеев, Дмитрий Архангельский О сериале: Лев живёт в домике на опушке леса вместе со старшей дочерью Надей и сыном Лёшей. Не так давно у мужчины умерла жена, так что отец вынужден один заботиться о детях, но ему грешно на них жаловаться: дочка ведёт домашнее хозяйство, а сын уже ходит на охоту вместе с папой. Живут они дружно. Пока однажды не самые добрые соседи решают, что у Льва и его сына с дочкой слишком хороший дом. Семейству предстоит отстаивать свои владения в жёсткой схватке. Страна: Россия Студия: Кинокомпания "Okko Studios" Продолжительность: 7 х ~ 00:13:00 Перевод: Не требуется Файл Формат: MP4 Качество: WEB-DLRip-AVC Видео: MPEG-4 AVC (x264), 640x272, ~ 500 kbps, 25.000 fps Аудио: AAC LC, 48.0 KHz, 2 ch, 128 Kbps Субтитры: Нет
[+] Скриншоты
[+] Внимание! Смотрим спин-оффы в такой последовательности!Выжившие 1 сезон 2021 год Выжившие. Пробуждение 2 сезон 2024 год спин-офф: 01.Выжившие. 3200 км 02.Выжившие. Благие намерения 03.Выжившие. БЛОГГГЕР 04.Выжившие. Огни 05.Выжившие. Подростки 06.Выжившие. Сено 07.Выжившие. Яна 08.Выжившие. Иона 09.Выжившие. Смертельный номер Добавил в S02 e00 10.Выжившие. Беременная 11.Выжившие. Круги 12.Выжившие. Дед 13.Выжившие. Патруль 14.Выжившие. Допрос
[+] MIComplete name : D:кино6.Vyzhivshie.Seno.S01.2021.WEB-DLRip-AVC.KPK.GFVyzhivshie.Seno.s01e01.2021.WEB-DLRip-AVC.KPK.GF.mp4 Format : MPEG-4 Codec ID : M4V (isom/iso2/avc1) File size : 58.9 MiB Duration : 13mn 6s Overall bit rate mode : Variable Overall bit rate : 628 Kbps Writing application : Lavf53.19.0 Video ID : 1 Format : AVC Format/Info : Advanced Video Codec Format profile : High@L4.1 Format settings, CABAC : Yes Format settings, ReFrames : 8 frames Codec ID : avc1 Codec ID/Info : Advanced Video Coding Duration : 13mn 6s Bit rate : 500 Kbps Width : 640 pixels Height : 272 pixels Display aspect ratio : 2.35:1 Frame rate mode : Constant Frame rate : 25.000 fps Color space : YUV Chroma subsampling : 4:2:0 Bit depth : 8 bits Scan type : Progressive Bits/(Pixel*Frame) : 0.115 Stream size : 46.7 MiB (79%) Writing library : x264 core 146 r2538 121396c Encoding settings : cabac=1 / ref=8 / deblock=1:-1:-1 / analyse=0x3:0x133 / me=umh / subme=10 / psy=1 / psy_rd=1.00:0.00 / mixed_ref=1 / me_range=24 / chroma_me=1 / trellis=2 / 8x8dct=1 / cqm=0 / deadzone=21,11 / fast_pskip=1 / chroma_qp_offset=-2 / threads=3 / lookahead_threads=1 / sliced_threads=0 / nr=0 / decimate=1 / interlaced=0 / bluray_compat=0 / constrained_intra=0 / bframes=8 / b_pyramid=2 / b_adapt=2 / b_bias=0 / direct=3 / weightb=1 / open_gop=0 / weightp=2 / keyint=250 / keyint_min=126 / scenecut=40 / intra_refresh=0 / rc_lookahead=40 / rc=2pass / mbtree=1 / bitrate=500 / ratetol=1.0 / qcomp=0.60 / qpmin=0 / qpmax=69 / qpstep=4 / cplxblur=20.0 / qblur=0.5 / ip_ratio=1.40 / aq=1:1.00 Menus : 3 Audio ID : 2 Format : AAC Format/Info : Advanced Audio Codec Format profile : LC Codec ID : 40 Duration : 13mn 6s Bit rate mode : Variable Bit rate : 128 Kbps Channel(s) : 2 channels Channel positions : Front: L R Sampling rate : 48.0 KHz Frame rate : 46.875 fps (1024 spf) Compression mode : Lossy Stream size : 11.7 MiB (20%) Default : Yes Alternate group : 1 Menus : 3
Релиз от:

Всего файлов в раздаче: 7 
Vyzhivshie.Seno.s01e01.2021.WEB-DLRip-AVC.KPK.GF.mp458.87 MB
Vyzhivshie.Seno.s01e02.2021.WEB-DLRip-AVC.KPK.GF.mp434.68 MB
Vyzhivshie.Seno.s01e03.2021.WEB-DLRip-AVC.KPK.GF.mp428.61 MB
Vyzhivshie.Seno.s01e04.2021.WEB-DLRip-AVC.KPK.GF.mp434.60 MB
Vyzhivshie.Seno.s01e05.2021.WEB-DLRip-AVC.KPK.GF.mp428.36 MB
Vyzhivshie.Seno.s01e06.2021.WEB-DLRip-AVC.KPK.GF.mp433.93 MB
Vyzhivshie.Seno.s01e07.2021.WEB-DLRip-AVC.KPK.GF.mp435.41 MB

Похожие раздачи по запросу - Выжившие
2024-04-11 magnet Выжившие: Круги [S02] (2024) WEB-DLRip-AVC от Generalfilm | КПК 202.14 MB ↑ 0 ↓ 0
2024-04-09 magnet Ходячие мертвецы: Выжившие / The Walking Dead: The Ones Who Live [S01] (2024) WEB-DLRip-AVC | КПК | Novamedia 1.36 GB ↑ 0 ↓ 0
2024-04-03 magnet Ходячие мертвецы: Выжившие / The Walking Dead: The Ones Who Live [S01] (2024) WEB-DL 1080p от ExKinoRay | Novamedia 19.27 GB ↑ 1 ↓ 1
2024-04-02 magnet Ходячие мертвецы: Выжившие / The Walking Dead: The Ones Who Live [S01] (2024) WEB-DL 1080p от Jaskier | P 22.74 GB ↑ 0 ↓ 3
2024-04-02 magnet Выжившие: Допрос [01-07 из 07] (2024) WEBRip 1080p от ExKinoRay 2.25 GB ↑ 0 ↓ 0
2024-04-02 magnet Ходячие мертвецы: Выжившие / The Walking Dead: The Ones Who Live [S01] (2024) WEB-DL 1080p от NewComers | P 22.90 GB ↑ 0 ↓ 4
2024-04-02 magnet Ходячие мертвецы: Выжившие / The Walking Dead: The Ones Who Live [S01] (2024) WEB-DLRip 1080p | NewComers 1К12.22 GB ↑ 0 ↓ 0

Комментарии


Зарегистрируйтесь чтобы добавить комментарий
Торрент клиент
byTorrent - программа для загрузки торрент-файлов.

Скачать byTorrent.exe (1,5 МБ)

Скачать byTorrent.zip (0,6 МБ)

Поддержи torrent.by
российских рублей
(300 российских рублей это 4$)

Обратная связь rss

End game ©