↑↓torrent.by
Поиск
Логин:  Регистрация
Пароль:

Трюк / Trick (2019) BDRip-AVC от DoMiNo & селезень | D

download Скачать торрент-файл   magnet Магнитная ссылка Размер: 2.25 GB Добавлен: 2024-04-01 05:00
Пиры будут получены из сети DHT
Последний сидер был замечен 2024-04-01 21:27
Информация о фильме Название: Трюк Оригинальное название: Trick Год выхода: 2019 Жанр: ужасы Режиссер: Патрик Люссье В ролях: Омар Эппс, Джейми Кеннеди, Том Эткинс, Эллен Эдейр, Ванесса Аспильяга, Алекс Бро, Кристина Рейс, Тодд Фармер, Гэри Дж. Танниклифф, Аарон Далла Вилла О фильме: Детектив пытается отыскать убийцу по прозвищу Трюк, который терроризирует маленький город. Страна: США Студия: Durango Pictures, Film Bridge International, Pavillion Acquisitions, Premiere Picture, Trix2019 Продолжительность: 01:40:39 Перевод: Дублированный Субтитры: English Файл Формат: Matroska Качество: BDRip-AVC Видео: 1024x430 at 23.976 fps, x264@L4.1, ~2361 kbps Аудио 1: AC3, 6 ch, ~384 kbps - | Русский | Аудио 2: AC3, 6 ch, ~448 kbps - | Английский | Формат субтитров: softsub (SRT) ***Рип от: -=DoMiNo=-
[+] M/Ix264 : frame I:1082 Avg QP:16.27 size: 60784 x264 : frame P:32446 Avg QP:18.13 size: 24560 x264 : frame B:111251 Avg QP:20.15 size: 8265 x264 : consecutive B-frames: 2.8% 3.4% 10.2% 14.7% 18.6% 39.6% 5.0% 1.1% 1.1% 1.0% 0.6% 0.6% 0.5% 0.5% 0.4% General Unique ID : 327490577454963834883160821472679248662 (0xF66064161E9DBD6E9746A006F5794316) Complete name : L:Trick.2019.BDRip.x264.seleZen.mkv Format : Matroska Format version : Version 4 File size : 2.25 GiB Duration : 1 h 40 min Overall bit rate : 3 195 kb/s Movie name : Trick.2019.BDRip.x264.seleZen Encoded date : UTC 2022-08-22 19:11:55 Writing application : mkvmerge v70.0.0 ('Caught A Lite Sneeze') 64-bit Writing library : libebml v1.4.2 + libmatroska v1.6.4 Cover : Yes Attachments : cover.jpg / small_cover.jpg Video ID : 1 Format : AVC Format/Info : Advanced Video Codec Format profile : High@L4.1 Format settings : CABAC / 12 Ref Frames Format settings, CABAC : Yes Format settings, Reference : 12 frames Codec ID : V_MPEG4/ISO/AVC Duration : 1 h 40 min Bit rate : 2 361 kb/s Width : 1 024 pixels Height : 430 pixels Display aspect ratio : 2.40:1 Frame rate mode : Constant Frame rate : 23.976 (24000/1001) FPS Color space : YUV Chroma subsampling : 4:2:0 Bit depth : 8 bits Scan type : Progressive Bits/(Pixel*Frame) : 0.224 Stream size : 1.66 GiB (74%) Title : -=DoMiNo=- Writing library : x264 core 164 by -=DoMiNo=- Encoding settings : cabac=1 / ref=12 / deblock=1:-3:-2 / analyse=0x3:0x133 / me=umh / subme=11 / psy=1 / psy_rd=1.02:0.02 / mixed_ref=1 / me_range=32 / chroma_me=1 / trellis=2 / 8x8dct=1 / cqm=0 / deadzone=21,11 / fast_pskip=0 / chroma_qp_offset=-3 / threads=17 / lookahead_threads=3 / sliced_threads=0 / nr=0 / decimate=0 / interlaced=0 / bluray_compat=0 / constrained_intra=0 / bframes=14 / b_pyramid=2 / b_adapt=2 / b_bias=0 / direct=1 / weightb=1 / open_gop=0 / weightp=2 / keyint=250 / keyint_min=23 / scenecut=40 / intra_refresh=0 / rc_lookahead=60 / rc=crf / mbtree=0 / crf=18.8 / qcomp=0.65 / qpmin=0 / qpmax=69 / qpstep=4 / vbv_maxrate=50000 / vbv_bufsize=62500 / crf_max=0.0 / nal_hrd=none / filler=0 / ip_ratio=1.40 / pb_ratio=1.30 / aq=3:0.80 Language : English Default : Yes Forced : No Audio #1 ID : 2 Format : AC-3 Format/Info : Audio Coding 3 Commercial name : Dolby Digital Codec ID : A_AC3 Duration : 1 h 40 min Bit rate mode : Constant Bit rate : 384 kb/s Channel(s) : 6 channels Channel layout : L R C LFE Ls Rs Sampling rate : 48.0 kHz Frame rate : 31.250 FPS (1536 SPF) Compression mode : Lossy Stream size : 276 MiB (12%) Title : DUB Language : Russian Service kind : Complete Main Default : Yes Forced : Yes Audio #2 ID : 3 Format : AC-3 Format/Info : Audio Coding 3 Commercial name : Dolby Digital Codec ID : A_AC3 Duration : 1 h 40 min Bit rate mode : Constant Bit rate : 448 kb/s Channel(s) : 6 channels Channel layout : L R C LFE Ls Rs Sampling rate : 48.0 kHz Frame rate : 31.250 FPS (1536 SPF) Compression mode : Lossy Stream size : 322 MiB (14%) Title : Original Language : English Service kind : Complete Main Default : No Forced : No Text ID : 4 Format : UTF-8 Codec ID : S_TEXT/UTF8 Codec ID/Info : UTF-8 Plain Text Duration : 1 h 35 min Bit rate : 49 b/s Count of elements : 1234 Stream size : 34.4 KiB (0%) Title : Full Language : English Default : No Forced : No Menu 00:00:00.000 : :The Strong, Silent Types 00:15:42.024 : :Six Dead, Three Injured 00:28:01.013 : :Tomorrow's Halloween 00:45:08.080 : :There is No Evil 01:01:06.746 : :We've Got Trouble 01:09:53.731 : :Code Red 01:23:09.693 : :A Monster 01:36:37.458 : :Credits
Релиз: Присоединяйся к: Кликай на баннеры.

Всего файлов в раздаче: 1 
Trick.2019.BDRip.x264.seleZen.mkv2.25 GB

Комментарии


Зарегистрируйтесь чтобы добавить комментарий
Торрент клиент
byTorrent - программа для загрузки торрент-файлов.

Скачать byTorrent.exe (1,5 МБ)

Скачать byTorrent.zip (0,6 МБ)

Поддержи torrent.by
российских рублей
(300 российских рублей это 4$)

Обратная связь rss

End game ©