↑↓torrent.by
Поиск
Логин:  Регистрация
Пароль:

Выжившие: Яна [S01] (2021) WEB-DLRip-AVC от Generalfilm | КПК

download Скачать торрент-файл   magnet Магнитная ссылка Размер: 308.28 MB Добавлен: 2024-04-01 05:00
Пиры будут получены из сети DHT
Последний сидер был замечен 2024-04-03 10:18
Информация о фильме Оригинальное название: Выжившие: Яна Год выпуска: 2021 Жанр: Фантастика, триллер, драма Режиссер: Евгений Емелин В ролях: Егор Корешков, Анастасия Куимова, Аслан Цаллати, Юрий Анпилогов, Мария Васильева О сериале: Мир поразила эпидемия неизвестного вируса. Теперь те, кто проспит больше двух часов, уже не просыпаются. В такой страшной реальности существует и бывший менеджер нефтяной компании Максим. Он живёт в квартире и поддерживает жизнь спящей жены. Каждый день он ставит ей капельницы с глюкозой и потихоньку чинит в гараже машину. Максим рассчитывает однажды довезти жену до врачей, которые помогут ему вылечить её. Он уже привык к этой суровой реальности. Но тут в сравнительно спокойный ход событий врывается Яна. Максим находит её на лестничной площадке своего подъезда с простреленным плечом. Девушка потеряла много крови, но выжила. Вот только те, кто до этого ранили её, начинают подозревать, что она жива. А значит, опасность теперь грозит и Максиму. Страна: Россия Студия: Кинокомпания "Okko Studios" Продолжительность: 8 х ~ 00:09:00 Перевод: Не требуется Файл Формат: MP4 Качество: WEB-DLRip-AVC Видео: MPEG-4 AVC (x264), 640x360, ~ 500 kbps, 25.000 fps Аудио: AAC LC, 48.0 KHz, 2 ch, 128 Kbps Субтитры: Нет
[+] Скриншоты
[+] Внимание! Смотрим спин-оффы в такой последовательности!Выжившие 1 сезон 2021 год Выжившие. Пробуждение 2 сезон 2024 год спин-офф: 01.Выжившие. 3200 км 02.Выжившие. Благие намерения 03.Выжившие. БЛОГГГЕР 04.Выжившие. Огни 05.Выжившие. Подростки 06.Выжившие. Сено 07.Выжившие. Яна 08.Выжившие. Иона 09.Выжившие. Смертельный номер Добавил в S02 e00 10.Выжившие. Беременная 11.Выжившие. Круги 12.Выжившие. Дед 13.Выжившие. Патруль 14.Выжившие. Допрос
[+] MIComplete name : D:кино7.Vyzhivshie.Yana.S01.2021.WEB-DLRip-AVC.KPK.GFVyzhivshie.Yana.s01e01.2021.WEB-DLRip-AVC.KPK.GF.mp4 Format : MPEG-4 Codec ID : M4V (isom/iso2/avc1) File size : 40.6 MiB Duration : 8mn 59s Overall bit rate mode : Variable Overall bit rate : 632 Kbps Writing application : Lavf53.19.0 Video ID : 1 Format : AVC Format/Info : Advanced Video Codec Format profile : High@L4.1 Format settings, CABAC : Yes Format settings, ReFrames : 8 frames Codec ID : avc1 Codec ID/Info : Advanced Video Coding Duration : 8mn 59s Bit rate : 500 Kbps Width : 640 pixels Height : 360 pixels Display aspect ratio : 16:9 Frame rate mode : Constant Frame rate : 25.000 fps Color space : YUV Chroma subsampling : 4:2:0 Bit depth : 8 bits Scan type : Progressive Bits/(Pixel*Frame) : 0.087 Stream size : 32.1 MiB (79%) Writing library : x264 core 146 r2538 121396c Encoding settings : cabac=1 / ref=8 / deblock=1:-1:-1 / analyse=0x3:0x133 / me=umh / subme=10 / psy=1 / psy_rd=1.00:0.00 / mixed_ref=1 / me_range=24 / chroma_me=1 / trellis=2 / 8x8dct=1 / cqm=0 / deadzone=21,11 / fast_pskip=1 / chroma_qp_offset=-2 / threads=3 / lookahead_threads=1 / sliced_threads=0 / nr=0 / decimate=1 / interlaced=0 / bluray_compat=0 / constrained_intra=0 / bframes=8 / b_pyramid=2 / b_adapt=2 / b_bias=0 / direct=3 / weightb=1 / open_gop=0 / weightp=2 / keyint=250 / keyint_min=126 / scenecut=40 / intra_refresh=0 / rc_lookahead=40 / rc=2pass / mbtree=1 / bitrate=500 / ratetol=1.0 / qcomp=0.60 / qpmin=0 / qpmax=69 / qpstep=4 / cplxblur=20.0 / qblur=0.5 / ip_ratio=1.40 / aq=1:1.00 Menus : 3 Audio ID : 2 Format : AAC Format/Info : Advanced Audio Codec Format profile : LC Codec ID : 40 Duration : 8mn 59s Bit rate mode : Variable Bit rate : 128 Kbps Channel(s) : 2 channels Channel positions : Front: L R Sampling rate : 48.0 KHz Frame rate : 46.875 fps (1024 spf) Compression mode : Lossy Stream size : 8.14 MiB (20%) Default : Yes Alternate group : 1 Menus : 3
Релиз от:

Всего файлов в раздаче: 8 
Vyzhivshie.Yana.s01e01.2021.WEB-DLRip-AVC.KPK.GF.mp440.63 MB
Vyzhivshie.Yana.s01e02.2021.WEB-DLRip-AVC.KPK.GF.mp439.45 MB
Vyzhivshie.Yana.s01e03.2021.WEB-DLRip-AVC.KPK.GF.mp442.47 MB
Vyzhivshie.Yana.s01e04.2021.WEB-DLRip-AVC.KPK.GF.mp434.75 MB
Vyzhivshie.Yana.s01e05.2021.WEB-DLRip-AVC.KPK.GF.mp441.43 MB
Vyzhivshie.Yana.s01e06.2021.WEB-DLRip-AVC.KPK.GF.mp429.49 MB
Vyzhivshie.Yana.s01e07.2021.WEB-DLRip-AVC.KPK.GF.mp437.12 MB
Vyzhivshie.Yana.s01e08.2021.WEB-DLRip-AVC.KPK.GF.mp442.93 MB

Похожие раздачи по запросу - Выжившие
Вчера magnet Выжившие: Допрос [S02] (2024) WEBRip-AVC от Generalfilm | КПК 268.60 MB ↑ 0 ↓ 0
2024-04-19 magnet Выжившие: Патруль [S02] (2024) WEB-DLRip-AVC от Generalfilm | КПК 334.48 MB ↑ 0 ↓ 0
2024-04-11 magnet Выжившие: Круги [S02] (2024) WEB-DLRip-AVC от Generalfilm | КПК 202.14 MB ↑ 0 ↓ 0
2024-04-09 magnet Ходячие мертвецы: Выжившие / The Walking Dead: The Ones Who Live [S01] (2024) WEB-DLRip-AVC | КПК | Novamedia 1.36 GB ↑ 0 ↓ 0
2024-04-03 magnet Ходячие мертвецы: Выжившие / The Walking Dead: The Ones Who Live [S01] (2024) WEB-DL 1080p от ExKinoRay | Novamedia 19.27 GB ↑ 1 ↓ 0
2024-04-02 magnet Ходячие мертвецы: Выжившие / The Walking Dead: The Ones Who Live [S01] (2024) WEB-DL 1080p от Jaskier | P 22.74 GB ↑ 0 ↓ 0
2024-04-02 magnet Выжившие: Допрос [01-07 из 07] (2024) WEBRip 1080p от ExKinoRay 2.25 GB ↑ 0 ↓ 0

Комментарии


Зарегистрируйтесь чтобы добавить комментарий
Торрент клиент
byTorrent - программа для загрузки торрент-файлов.

Скачать byTorrent.exe (1,5 МБ)

Скачать byTorrent.zip (0,6 МБ)

Поддержи torrent.by
российских рублей
(300 российских рублей это 4$)

Обратная связь rss

End game ©