↑↓torrent.by
Поиск
Логин:  Регистрация
Пароль:

Дева и дракон / Damsel (2024) WEB-DL 2160p | 4K | SDR | D, P, P2, L

download Скачать торрент-файл   magnet Магнитная ссылка Размер: 17.77 GB Раздают: 2 Качают: 1 Добавлен: 2024-04-01 05:00
Пиры будут получены из сети DHT
Последний сидер был замечен сегодня в 17:47
Название: Дева и дракон Оригинальное название: Damsel Год выхода: 2024 Производство: США/ Netflix, PCMA Management and Productions, Roth/Kirschenbaum Films Жанр: Фэнтези, боевик, приключения Перевод: Неофициальный дублированный, профессиональный многоголосый, любительский многоголосый, профессиональный двухголосый Продолжительность: 01:49:33 Режиссёр: Хуан Карлос Фреснадильо В ролях: Милли Бобби Браун, Рэй Уинстон, Анджела Бассетт, Ник Робинсон, Робин Райт, Мило Твоми, Патрис Найамбана, Улли Экерманн Описание: История о принцессе Элоди, которая думает, что выйдет замуж за прекрасного принца Генри. Но она не знает, что на самом деле королевская семья завербовала ее в жертву, чтобы выплатить древний долг. Оказавшись в пещере с огнедышащим драконом, она вынуждена полагаться исключительно на свой ум и силу воли, чтобы выжить. Формат: MKV Качество: WEB-DL 2160p Видео: MPEG-H/HEVC, 3840x2160, 17,8 Mb/s, 0.090 бит/(Пиксели*Кадры), 24,000 fps Аудио 1: Русский, E-AC3, 5.1, 48 kHz, 768 kbps / MVO Jaskier Аудио 2: Русский, E-AC3, 5.1, 48 kHz, 768 kbps / MVO TVShows Аудио 3: Русский, E-AC3, 5.1, 48 kHz, 768 kbps / MVO LostFilm Аудио 4: Русский, AC3, 5.1, 48 kHz, 640 kbps / MVO Voice Project Studio Аудио 5: Русский, AC3, 2.0, 48 kHz, 192 kbps / MVO Red Head Sound Аудио 6: Русский, AC3, 5.1, 48 kHz, 640 kbps / DVO ViruseProject Аудио 7: Русский, AC3, 2.0, 48 kHz, 192 kbps / Dub HDRezka Studio Аудио 8: Украинский, E-AC3, 5.1, 48 kHz, 640 kbps / Dub Postmodern Аудио 9: Английский, Е-AC3 Atmos, 5.1, 48 kHz, 768 kbps / Original English Субтитры: Русские (Forced, Full), украинские (Forced, Full), английские (Full, SDH)
[+] MediainfoGeneral Unique ID : 117825612779098324756179227692339584660 (0x58A46338E1DA65D34E2FBD73A7A05E94) Complete name : L:Damsel.2024.2160p.UHD.NF.WEB-DL.SDR.HEVC-Нечипорук.mkv Format : Matroska Format version : Version 4 File size : 17.8 GiB Duration : 1 h 49 min Overall bit rate : 23.2 Mb/s Frame rate : 24.000 FPS Movie name : Damsel.2024.2160p.UHD.NF.WEB-DL.SDR.HEVC-Нечипорук Encoded date : 2024-03-30 11:02:51 UTC Writing application : mkvmerge v83.0 ('Circle Of Friends') 64-bit Writing library : libebml v1.4.5 + libmatroska v1.7.1 Cover : Yes Attachments : cover.jpg Video ID : 1 Format : HEVC Format/Info : High Efficiency Video Coding Format profile : Main 10@L5@Main Codec ID : V_MPEGH/ISO/HEVC Duration : 1 h 49 min Bit rate : 17.8 Mb/s Width : 3 840 pixels Height : 2 160 pixels Display aspect ratio : 16:9 Frame rate mode : Constant Frame rate : 24.000 FPS Color space : YUV Chroma subsampling : 4:2:0 Bit depth : 10 bits Bits/(Pixel*Frame) : 0.090 Stream size : 13.6 GiB (77%) Title : Damsel.2024.2160p.UHD.NF.WEB-DL.SDR.HEVC-Нечипорук Language : English Default : Yes Forced : No Color range : Limited Color primaries : BT.709 Transfer characteristics : BT.709 Matrix coefficients : BT.709 Audio #1 ID : 2 Format : E-AC-3 Format/Info : Enhanced AC-3 Commercial name : Dolby Digital Plus Codec ID : A_EAC3 Duration : 1 h 49 min Bit rate mode : Constant Bit rate : 768 kb/s Channel(s) : 6 channels Channel layout : L R C LFE Ls Rs Sampling rate : 48.0 kHz Frame rate : 31.250 FPS (1536 SPF) Compression mode : Lossy Stream size : 602 MiB (3%) Title : MVO Jaskier Language : Russian Service kind : Complete Main Default : Yes Forced : No Audio #2 ID : 3 Format : E-AC-3 Format/Info : Enhanced AC-3 Commercial name : Dolby Digital Plus Codec ID : A_EAC3 Duration : 1 h 49 min Bit rate mode : Constant Bit rate : 768 kb/s Channel(s) : 6 channels Channel layout : L R C LFE Ls Rs Sampling rate : 48.0 kHz Frame rate : 31.250 FPS (1536 SPF) Compression mode : Lossy Stream size : 602 MiB (3%) Title : MVO TVShows Language : Russian Service kind : Complete Main Default : No Forced : No Audio #3 ID : 4 Format : E-AC-3 Format/Info : Enhanced AC-3 Commercial name : Dolby Digital Plus Codec ID : A_EAC3 Duration : 1 h 49 min Bit rate mode : Constant Bit rate : 768 kb/s Channel(s) : 6 channels Channel layout : L R C LFE Ls Rs Sampling rate : 48.0 kHz Frame rate : 31.250 FPS (1536 SPF) Compression mode : Lossy Stream size : 602 MiB (3%) Title : MVO LostFilm Language : Russian Service kind : Complete Main Default : No Forced : No Audio #4 ID : 5 Format : AC-3 Format/Info : Audio Coding 3 Commercial name : Dolby Digital Codec ID : A_AC3 Duration : 1 h 49 min Bit rate mode : Constant Bit rate : 640 kb/s Channel(s) : 6 channels Channel layout : L R C LFE Ls Rs Sampling rate : 48.0 kHz Frame rate : 31.250 FPS (1536 SPF) Compression mode : Lossy Stream size : 502 MiB (3%) Title : MVO Voice Project Studio Language : Russian Service kind : Complete Main Default : No Forced : No Audio #5 ID : 6 Format : AC-3 Format/Info : Audio Coding 3 Commercial name : Dolby Digital Codec ID : A_AC3 Duration : 1 h 49 min Bit rate mode : Constant Bit rate : 192 kb/s Channel(s) : 2 channels Channel layout : L R Sampling rate : 48.0 kHz Frame rate : 31.250 FPS (1536 SPF) Compression mode : Lossy Stream size : 150 MiB (1%) Title : MVO Red Head Sound Language : Russian Service kind : Complete Main Default : No Forced : No Audio #6 ID : 7 Format : AC-3 Format/Info : Audio Coding 3 Commercial name : Dolby Digital Codec ID : A_AC3 Duration : 1 h 49 min Bit rate mode : Constant Bit rate : 640 kb/s Channel(s) : 6 channels Channel layout : L R C LFE Ls Rs Sampling rate : 48.0 kHz Frame rate : 31.250 FPS (1536 SPF) Compression mode : Lossy Stream size : 502 MiB (3%) Title : DVO ViruseProject Language : Russian Service kind : Complete Main Default : No Forced : No Audio #7 ID : 8 Format : AC-3 Format/Info : Audio Coding 3 Commercial name : Dolby Digital Codec ID : A_AC3 Duration : 1 h 49 min Bit rate mode : Constant Bit rate : 192 kb/s Channel(s) : 2 channels Channel layout : L R Sampling rate : 48.0 kHz Frame rate : 31.250 FPS (1536 SPF) Compression mode : Lossy Stream size : 150 MiB (1%) Title : Дубляж HDRezka Studio Language : Russian Service kind : Complete Main Default : No Forced : No Audio #8 ID : 9 Format : E-AC-3 Format/Info : Enhanced AC-3 Commercial name : Dolby Digital Plus Codec ID : A_EAC3 Duration : 1 h 49 min Bit rate mode : Constant Bit rate : 640 kb/s Channel(s) : 6 channels Channel layout : L R C LFE Ls Rs Sampling rate : 48.0 kHz Frame rate : 31.250 FPS (1536 SPF) Compression mode : Lossy Stream size : 502 MiB (3%) Title : Дубляж Postmodern Language : Ukrainian Service kind : Complete Main Default : No Forced : No Audio #9 ID : 10 Format : E-AC-3 JOC Format/Info : Enhanced AC-3 with Joint Object Coding Commercial name : Dolby Digital Plus with Dolby Atmos Codec ID : A_EAC3 Duration : 1 h 49 min Bit rate mode : Constant Bit rate : 768 kb/s Channel(s) : 6 channels Channel layout : L R C LFE Ls Rs Sampling rate : 48.0 kHz Frame rate : 31.250 FPS (1536 SPF) Compression mode : Lossy Stream size : 602 MiB (3%) Title : Original Language : English Service kind : Complete Main Default : No Forced : No Complexity index : 16 Number of dynamic objects : 15 Bed channel count : 1 channel Bed channel configuration : LFE Text #1 ID : 11 Format : UTF-8 Codec ID : S_TEXT/UTF8 Codec ID/Info : UTF-8 Plain Text Duration : 1 h 2 min Bit rate : 0 b/s Frame rate : 0.002 FPS Count of elements : 9 Stream size : 228 Bytes (0%) Title : Форсированные Language : Russian Default : Yes Forced : No Text #2 ID : 12 Format : UTF-8 Codec ID : S_TEXT/UTF8 Codec ID/Info : UTF-8 Plain Text Duration : 1 h 46 min Bit rate : 35 b/s Frame rate : 0.107 FPS Count of elements : 686 Stream size : 27.8 KiB (0%) Title : Полные Language : Russian Default : No Forced : No Text #3 ID : 13 Format : UTF-8 Codec ID : S_TEXT/UTF8 Codec ID/Info : UTF-8 Plain Text Duration : 1 h 2 min Bit rate : 0 b/s Frame rate : 0.004 FPS Count of elements : 14 Stream size : 402 Bytes (0%) Title : Форсованнi Language : Ukrainian Default : No Forced : No Text #4 ID : 14 Format : UTF-8 Codec ID : S_TEXT/UTF8 Codec ID/Info : UTF-8 Plain Text Duration : 1 h 46 min Bit rate : 36 b/s Frame rate : 0.107 FPS Count of elements : 686 Stream size : 28.5 KiB (0%) Title : Повнi Language : Ukrainian Default : No Forced : No Text #5 ID : 15 Format : UTF-8 Codec ID : S_TEXT/UTF8 Codec ID/Info : UTF-8 Plain Text Duration : 1 h 43 min Bit rate : 23 b/s Frame rate : 0.113 FPS Count of elements : 698 Stream size : 17.5 KiB (0%) Title : Full Language : English Default : No Forced : No Text #6 ID : 16 Format : UTF-8 Codec ID : S_TEXT/UTF8 Codec ID/Info : UTF-8 Plain Text Duration : 1 h 43 min Bit rate : 28 b/s Frame rate : 0.145 FPS Count of elements : 898 Stream size : 21.4 KiB (0%) Title : Full SDH Language : English Default : No Forced : No Text #7 ID : 17 Format : UTF-8 Codec ID : S_TEXT/UTF8 Codec ID/Info : UTF-8 Plain Text Duration : 1 h 46 min Bit rate : 20 b/s Frame rate : 0.105 FPS Count of elements : 672 Stream size : 15.8 KiB (0%) Title : Voll Language : German Default : No Forced : No Text #8 ID : 18 Format : UTF-8 Codec ID : S_TEXT/UTF8 Codec ID/Info : UTF-8 Plain Text Duration : 1 h 46 min Bit rate : 19 b/s Frame rate : 0.106 FPS Count of elements : 679 Stream size : 15.5 KiB (0%) Title : Pełne napisy Language : Polish Default : No Forced : No Text #9 ID : 19 Format : UTF-8 Codec ID : S_TEXT/UTF8 Codec ID/Info : UTF-8 Plain Text Duration : 1 h 46 min Bit rate : 20 b/s Frame rate : 0.106 FPS Count of elements : 679 Stream size : 16.3 KiB (0%) Title : Subtitrări complete Language : Romanian Default : No Forced : No Menu 00:00:00.000 : en:Part 01 01:41:00.000 : en:Credits
[+] Скриншоты

Всего файлов в раздаче: 1 
Damsel.2024.2160p.UHD.NF.WEB-DL.SDR.HEVC-Нечипорук.mkv17.77 GB

Похожие раздачи по запросу - Дева
2024-04-05 magnet Дева и дракон / Damsel (2024) WEB-DLRip-HEVC 1080p от AllHevc 1.57 GB ↑ 1 ↓ 1
2024-03-31 magnet Дева и дракон / Damsel (2024) WEB-DLRip 720p от DoMiNo & селезень | D, P, P2 4.30 GB ↑ 0 ↓ 1
2024-03-31 magnet Дева и дракон / Damsel (2024) WEB-DL 2160p | 4K | HDR | Dolby Vision Profile 8 | D, P, P2, L 18.17 GB ↑ 0 ↓ 0
2024-03-24 magnet Дева и дракон / Damsel (2024) WEB-DLRip от MegaPeer | D | HDRezka Studio 1.46 GB ↑ 0 ↓ 0
2024-03-24 magnet Дева и дракон / Damsel (2024) WEB-DL 2160p | 4K | HDR | Dolby Vision Profile 8 | D, P, P2, L 17.29 GB ↑ 2 ↓ 1
2024-03-24 magnet Дева и дракон / Damsel (2024) WEB-DL 2160p | 4K | SDR | D, P, P2, L 16.89 GB ↑ 0 ↓ 0
2024-03-17 magnet Дева и дракон / Damsel (2024) WEB-DL-HEVC 1080p | P, P2, L 8.08 GB ↑ 0 ↓ 1

Комментарии


Зарегистрируйтесь чтобы добавить комментарий
Торрент клиент
byTorrent - программа для загрузки торрент-файлов.

Скачать byTorrent.exe (1,5 МБ)

Скачать byTorrent.zip (0,6 МБ)

Поддержи torrent.by
российских рублей
(300 российских рублей это 4$)

Обратная связь rss

End game ©