↑↓torrent.by
Поиск
Логин:  Регистрация
Пароль:

Воздух (2023) WEB-DL 1080p от ELEKTRI4KA | КиноПоиск HD

download Скачать торрент-файл   magnet Магнитная ссылка Размер: 7.75 GB Раздают: 3 Качают: 10 Добавлен: 2024-04-01 05:00
Пиры будут получены из сети DHT
Последний сидер был замечен сегодня в 18:11
Информация о фильме Название: Воздух Год выхода: 2023 Жанр: военный, драма, история Режиссер: Алексей Герман мл. В ролях: Анастасия Талызина, Аглая Тарасова, Кристина Лапшина , Кристина Исайкина-Бергер, Елена Лядова, Антон Шагин, Сергей Безруков, Полина Дудкина, Петр Логачев, Филипп Дьячков О фильме: Великая Отечественная война. В СССР идут тяжелые бои, немецкая армия наступает. В смешанный авиационный полк прибывает подразделение летчиц. Все они — юные, необстрелянные и сперва не совсем понимают, что такое война. Девушкам приходится трудно в мужском мире, но они день за днем в череде воздушных схваток доказывают, что они не хуже мужчин. Выпущено: Россия / АМЕДИА, Первый канал, Метрафильмс Продолжительность: 02:31:25 Озвучивание: Оригинальное | КиноПоиск HD Файл Формат: MKV Качество: WEB-DL 1080p Видео: MPEG-4 AVC, 6000 Kb/s, 1920x804 Аудио: Russian: AC3, 448 Kb/s (6 ch) / E-AC3, 448 Kb/s (6 ch), Russian: E-AC3, 448 Kb/s (6 ch) - Тифло-комментарии Субтитры: Нет Дополнительно: Нет Релиз группы: Мы в Telegram:
[+] Инфо-файл:Complete name : Vozduh.2023.WEB-DL.1080p.ELEKTRI4KA.mkv Format : Matroska Format version : Version 4 File size : 7.75 GiB Duration : 2 h 31 min Overall bit rate : 7 324 kb/s Movie name : Vozduh.2023.WEB-DL.1080p.ELEKTRI4KA. Encoded date : UTC 2024-03-31 21:58:36 Writing application : mkvmerge v8.3.0 ('Over the Horizon') 64bit Writing library : libebml v1.3.1 + libmatroska v1.4.2 Video ID : 1 Format : AVC Format/Info : Advanced Video Codec Format profile : High@L4 Format settings : CABAC / 5 Ref Frames Format settings, CABAC : Yes Format settings, Reference frames : 5 frames Codec ID : V_MPEG4/ISO/AVC Duration : 2 h 31 min Bit rate : 6 000 kb/s Width : 1 920 pixels Height : 804 pixels Display aspect ratio : 2.40:1 Frame rate mode : Constant Frame rate : 25.000 FPS Color space : YUV Chroma subsampling : 4:2:0 Bit depth : 8 bits Scan type : Progressive Bits/(Pixel*Frame) : 0.155 Stream size : 6.32 GiB (82%) Writing library : x264 core 157 Encoding settings : cabac=1 / ref=5 / deblock=1:0:0 / analyse=0x3:0x133 / me=umh / subme=10 / psy=1 / psy_rd=1.00:0.00 / mixed_ref=1 / me_range=24 / chroma_me=1 / trellis=2 / 8x8dct=1 / cqm=0 / deadzone=21,11 / fast_pskip=1 / chroma_qp_offset=-2 / threads=25 / lookahead_threads=4 / sliced_threads=0 / nr=0 / decimate=1 / interlaced=0 / bluray_compat=0 / stitchable=1 / constrained_intra=0 / bframes=8 / b_pyramid=2 / b_adapt=2 / b_bias=0 / direct=3 / weightb=1 / open_gop=0 / weightp=2 / keyint=250 / keyint_min=25 / scenecut=40 / intra_refresh=0 / rc_lookahead=60 / rc=2pass / mbtree=1 / bitrate=6000 / ratetol=1.0 / qcomp=0.60 / qpmin=0 / qpmax=69 / qpstep=4 / cplxblur=20.0 / qblur=0.5 / vbv_maxrate=6600 / vbv_bufsize=12000 / nal_hrd=none / filler=0 / ip_ratio=1.40 / aq=1:1.00 Default : Yes Forced : No Audio #1 ID : 2 Format : AC-3 Format/Info : Audio Coding 3 Commercial name : Dolby Digital Codec ID : A_AC3 Duration : 2 h 31 min Bit rate mode : Constant Bit rate : 448 kb/s Channel(s) : 6 channels Channel layout : L R C LFE Ls Rs Sampling rate : 48.0 kHz Frame rate : 31.250 FPS (1536 SPF) Compression mode : Lossy Stream size : 485 MiB (6%) Title : Original AC3 (KP HD) Language : Russian Service kind : Complete Main Default : Yes Forced : Yes Audio #2 ID : 3 Format : E-AC-3 Format/Info : Enhanced AC-3 Commercial name : Dolby Digital Plus Codec ID : A_EAC3 Duration : 2 h 31 min Bit rate mode : Constant Bit rate : 448 kb/s Channel(s) : 6 channels Channel layout : L R C LFE Ls Rs Sampling rate : 48.0 kHz Frame rate : 31.250 FPS (1536 SPF) Compression mode : Lossy Stream size : 485 MiB (6%) Title : Original EAC3 (KP HD) Language : Russian Service kind : Complete Main Default : No Forced : No Audio #3 ID : 4 Format : E-AC-3 Format/Info : Enhanced AC-3 Commercial name : Dolby Digital Plus Codec ID : A_EAC3 Duration : 2 h 31 min Bit rate mode : Constant Bit rate : 448 kb/s Channel(s) : 6 channels Channel layout : L R C LFE Ls Rs Sampling rate : 48.0 kHz Frame rate : 31.250 FPS (1536 SPF) Compression mode : Lossy Stream size : 485 MiB (6%) Title : Original EAC3 (Audiodeskriptsiya) Language : Russian Service kind : Complete Main Default : No Forced : No
[+] Скриншоты

Всего файлов в раздаче: 1 
Vozduh.2023.WEB-DL.1080p.ELEKTRI4KA.mkv7.75 GB

Похожие раздачи по запросу - Воздух
2024-04-06 magnet Воздух (2023) WEB-DLRip-AVC от DoMiNo 745.53 MB ↑ 0 ↓ 1
2024-04-02 magnet Воздух (2023) WEB-DLRip от Generalfilm | КПК 575.90 MB ↑ 0 ↓ 0
2024-04-01 magnet Воздух [2023, военный, драма, история, WEB-DLRip-AVC] 2.18 GB ↑ 2 ↓ 0
2024-04-01 magnet Воздух (2023) WEB-DL 720p от ExKinoRay | КиноПоиск HD 6.11 GB ↑ 0 ↓ 0
2024-04-01 magnet Воздух (2023) WEB-DLRip-AVC от MegaPeer 2.17 GB ↑ 0 ↓ 0
2024-04-01 magnet Воздух (2023) WEB-DLRip от MegaPeer 1.46 GB ↑ 0 ↓ 1
2024-04-01 magnet Воздух (2023) WEB-DL 720p 4.36 GB ↑ 0 ↓ 0

Комментарии


Зарегистрируйтесь чтобы добавить комментарий
Торрент клиент
byTorrent - программа для загрузки торрент-файлов.

Скачать byTorrent.exe (1,5 МБ)

Скачать byTorrent.zip (0,6 МБ)

Поддержи torrent.by
российских рублей
(300 российских рублей это 4$)

Обратная связь rss

End game ©