↑↓torrent.by
Поиск
Логин:  Регистрация
Пароль:

Казачок [01-03 из 08] (2024) WEBRip

download Скачать торрент-файл   magnet Магнитная ссылка Размер: 949.09 MB Добавлен: 2024-04-01 05:00
Пиры будут получены из сети DHT
Последний сидер был замечен 2024-04-05 15:50
Информация о фильме Оригинальное название: Казачок Год выпуска: 2024 Жанр: Приключения, комедия Страна: Россия Производство: Свердловск, ТНТ Режиссер: Игорь Зайцев В ролях: Алексей Лукин, Алексей Кравченко, Николай Шрайбер, Георгий Дронов, Виталий Кищенко, Владимир Епифанцев, Виктория Разумовская, Александр Новиков, Константин Мирошников, Алексей Макаров, Олеся Судзиловская, Марина Лебедева, Юлия Бедарева, Роман Юнусов Описание: Родители отправляют школьника Стёпу на летние каникулы в деревню к бабушке — в качестве наказания. Здесь он вынужден отказаться от современных технологических благ и жить по правилам деревни. Убегая в очередной раз от местных подростков, Степа пытается спрятаться в колодце, но проваливается в него. Выбравшись наружу, он осознает, что оказался в настоящей казачьей станице 17-го века. В важнейший исторический момент нашей страны. По воле судьбы, Стёпа многому научится у своих далеких предков, найдёт настоящих друзей и на практике освоит заваленный в школе урок истории. Продолжительность: ~00:24:00 Язык: Русский Субтитры: нет Файл Качество: WEBRip Формат: AVI Видео кодек: XviD Аудио кодек: AC3 Видео: 720x400 (1.80:1), 25 fps, XviD ~1650 kbps avg, 0.229 bit/pixel Аудио: AC3, 2 ch, 192 kbps, 16 bits, 48.0 KHz
[+] MIGeneral Complete name : W:Kazachok.S01.WEB-DLRip.MrMittensKazachok.S01.E01.WEB-DLRip.MrMittens.avi Format : AVI Format/Info : Audio Video Interleave File size : 319 MiB Duration : 24 min 5 s Overall bit rate : 1 851 kb/s Writing application : VirtualDubMod 1.5.10.3 | www.virtualdub-fr.org || (build 2550/release) Writing library : VirtualDubMod build 2550/release Video ID : 0 Format : MPEG-4 Visual Format profile : Advanced Simple@L5 Format settings : BVOP1 / Custom Matrix Format settings, BVOP : 1 Format settings, QPel : No Format settings, GMC : No warppoints Format settings, Matrix : Custom Codec ID : XVID Codec ID/Hint : XviD Duration : 24 min 5 s Bit rate : 1 649 kb/s Width : 720 pixels Height : 400 pixels Display aspect ratio : 16:9 Frame rate : 25.000 FPS Color space : YUV Chroma subsampling : 4:2:0 Bit depth : 8 bits Scan type : Progressive Compression mode : Lossy Bits/(Pixel*Frame) : 0.229 Stream size : 284 MiB (89%) Writing library : XviD 73 Audio ID : 1 Format : AC-3 Format/Info : Audio Coding 3 Codec ID : 2000 Duration : 24 min 5 s Bit rate mode : Constant Bit rate : 192 kb/s Channel(s) : 2 channels Channel positions : Front: L R Sampling rate : 48.0 kHz Frame rate : 31.250 FPS (1536 SPF) Bit depth : 16 bits Compression mode : Lossy Stream size : 33.1 MiB (10%) Alignment : Split accross interleaves Interleave, duration : 40 ms (1.00 video frame) Interleave, preload duratio : 500 ms Service kind : Complete Main
[+] Скриншоты

Всего файлов в раздаче: 3 
Kazachok.S01.E01.WEB-DLRip.MrMittens.avi318.91 MB
Kazachok.S01.E02.WEB-DLRip.MrMittens.avi318.62 MB
Kazachok.S01.E03.WEB-DLRip.MrMittens.avi311.55 MB

Похожие раздачи по запросу - Казачок
2024-04-07 magnet Казачок [S01] (2024) WEBRip-AVC от Generalfilm | КПК 874.30 MB ↑ 1 ↓ 0
2024-04-05 magnet Казачок [S01] (2024) WEB-DLRip от Files-х 2.35 GB ↑ 0 ↓ 0
2024-04-05 magnet Казачок [S01] (2024) WEB-DL 720p от ExKinoRay 4.93 GB ↑ 0 ↓ 1
2024-04-05 magnet Казачок [S01] (2024) WEB-DL 1080p от ExKinoRay 7.39 GB ↑ 0 ↓ 0
2024-04-05 magnet Казачок [S01] (2024) WEB-DLRip-AVC от ExKinoRay 2.31 GB ↑ 0 ↓ 0
2024-04-05 magnet Казачок [S01] (2024) WEB-DLRip-AVC от Files-х 2К2.42 GB ↑ 0 ↓ 0
2024-04-04 magnet Казачок [01х01-07 из 08] (2024) WEB-DLRip-AVC от Files-х 2.11 GB ↑ 0 ↓ 0

Комментарии


Зарегистрируйтесь чтобы добавить комментарий
Торрент клиент
byTorrent - программа для загрузки торрент-файлов.

Скачать byTorrent.exe (1,5 МБ)

Скачать byTorrent.zip (0,6 МБ)

Поддержи torrent.by
российских рублей
(300 российских рублей это 4$)

Обратная связь rss

End game ©