↑↓torrent.by
Поиск
Логин:  Регистрация
Пароль:

Любовь по вызову / Good Luck to You, Leo Grande (2022) BDRip 1080p от EniaHD | D

download Скачать торрент-файл   magnet Магнитная ссылка Размер: 10.72 GB Добавлен: 2024-04-01 05:00
Пиры будут получены из сети DHT
Последний сидер был замечен 2024-04-05 11:33
Любовь по вызову Good Luck to You, Leo Grande Страна: Великобритания, США Жанр: драма, комедия Год выпуска: 2022 Продолжительность: 01:37:13 Перевод: Профессиональный (дублированный) - Pride Production Субтитры: русские, английские (SDH), испанские, португальские Режиссер: Софи Хайд / Sophie Hyde В ролях: Эмма Томпсон, Дэрил Маккормак, Изабелла Лафлэнд, Лес Мабалека, Ленни Бир, Карина Лопеш, Шарлотта Уэр Описание: Через два года после смерти мужа 60-летняя Нэнси Стоукс решает попробовать то, о чём мечтала многие годы — испытать удовольствие от секса. Она снимает номер в отеле и приглашает парня по вызову. Тип релиза: BDRip 1080p | iFT Контейнер: MKV Видео: MPEG-4 AVC, 1920x960 (2:1), 24 fps, 14.1 mbps Аудио 1: RUS AC-3, 5.1, 48 kHz, 640 kbps Аудио 2: ENG E-AC-3, 5.1, 48 kHz, 1024 kbps Формат субтитров: softsub (SRT)
[+] MediaInfo x264 : frame I:910 Avg QP:11.56 size:279716 x264 : frame P:25385 Avg QP:13.07 size:142024 x264 : frame B:113705 Avg QP:14.73 size: 56582 x264 : consecutive B-frames: 1.0% 0.6% 3.3% 4.7% 11.8% 70.4% 6.0% 0.8% 1.5% General Unique ID : 324087508035936906390231735197126678071 (0xF3D0FBCF5C5E91BA0E60C88B5F48D637) Complete name : Good.Luck.to.You.Leo.Grande.2022.1080p.BluRay.x264-iFT_EniaHD.mkv Format : Matroska Format version : Version 4 File size : 10.5 GiB Duration : 1 h 37 min Overall bit rate : 15.5 Mb/s Frame rate : 24.000 FPS Movie name : Good Luck to You, Leo Grande (2022) - EniaHD Writing application : mkvmerge v57.0.0 ('Till The End') 64-bit Writing library : libebml v1.4.2 + libmatroska v1.6.4 Video ID : 1 Format : AVC Format/Info : Advanced Video Codec Format profile : High@L4.1 Format settings : CABAC / 4 Ref Frames Format settings, CABAC : Yes Format settings, Reference fra : 4 frames Codec ID : V_MPEG4/ISO/AVC Duration : 1 h 37 min Bit rate : 14.1 Mb/s Width : 1 920 pixels Height : 960 pixels Display aspect ratio : 2.000 Frame rate mode : Constant Frame rate : 24.000 FPS Color space : YUV Chroma subsampling : 4:2:0 Bit depth : 8 bits Scan type : Progressive Bits/(Pixel*Frame) : 0.319 Stream size : 9.59 GiB (91%) Writing library : x264 core 164 r3098+49M ~ Encoded by Mocunaman in Portugal Encoding settings : cabac=1 / ref=4 / deblock=1:-3:-3 / analyse=0x3:0x113 / me=umh / subme=10 / psy=1 / fade_compensate=0.00 / psy_rd=1.00:0.00 / mixed_ref=1 / me_range=32 / chroma_me=1 / trellis=2 / 8x8dct=1 / cqm=0 / deadzone=21,11 / fast_pskip=0 / chroma_qp_offset=-2 / threads=30 / lookahead_threads=5 / sliced_threads=0 / nr=0 / decimate=0 / interlaced=0 / bluray_compat=0 / constrained_intra=0 / fgo=0 / bframes=8 / b_pyramid=2 / b_adapt=2 / b_bias=0 / direct=3 / weightb=1 / open_gop=0 / weightp=2 / keyint=250 / keyint_min=24 / scenecut=40 / intra_refresh=0 / rc_lookahead=60 / rc=crf / mbtree=0 / crf=15.8000 / qcomp=0.60 / qpmin=0:0:0 / qpmax=69:69:69 / qpstep=4 / vbv_maxrate=62500 / vbv_bufsize=78125 / crf_max=0.0 / nal_hrd=none / filler=0 / ip_ratio=1.40 / pb_ratio=1.30 / aq=3:0.80 / aq-sensitivity=10.00 / aq-factor=1.00:1.00:1.00 / aq2=0 / aq3=0 Default : Yes Forced : No Color range : Limited Color primaries : BT.709 Transfer characteristics : BT.709 Matrix coefficients : BT.709 Audio #1 ID : 2 Format : AC-3 Format/Info : Audio Coding 3 Commercial name : Dolby Digital Codec ID : A_AC3 Duration : 1 h 37 min Bit rate mode : Constant Bit rate : 640 kb/s Channel(s) : 6 channels Channel layout : L R C LFE Ls Rs Sampling rate : 48.0 kHz Frame rate : 31.250 FPS (1536 SPF) Compression mode : Lossy Stream size : 267 MiB (2%) Title : Russian Language : Russian Service kind : Complete Main Default : Yes Forced : No Audio #2 ID : 3 Format : E-AC-3 Format/Info : Enhanced AC-3 Commercial name : Dolby Digital Plus Codec ID : A_EAC3 Duration : 1 h 37 min Bit rate mode : Constant Bit rate : 1 024 kb/s Channel(s) : 6 channels Channel layout : L R C LFE Ls Rs Sampling rate : 48.0 kHz Frame rate : 31.250 FPS (1536 SPF) Compression mode : Lossy Stream size : 712 MiB (7%) Title : English Language : English Service kind : Complete Main Default : No Forced : No Text #1 ID : 4 Format : UTF-8 Codec ID : S_TEXT/UTF8 Codec ID/Info : UTF-8 Plain Text Duration : 1 h 32 min Bit rate : 106 b/s Frame rate : 0.263 FPS Count of elements : 1460 Stream size : 72.1 KiB (0%) Title : Russian Language : Russian Default : No Forced : No Text #2 ID : 5 Format : UTF-8 Codec ID : S_TEXT/UTF8 Codec ID/Info : UTF-8 Plain Text Duration : 1 h 36 min Bit rate : 86 b/s Frame rate : 0.305 FPS Count of elements : 1771 Stream size : 61.5 KiB (0%) Title : English (SDH) Language : English Default : No Forced : No Text #3 ID : 6 Format : UTF-8 Codec ID : S_TEXT/UTF8 Codec ID/Info : UTF-8 Plain Text Duration : 1 h 35 min Bit rate : 75 b/s Frame rate : 0.259 FPS Count of elements : 1493 Stream size : 52.7 KiB (0%) Title : Spanish Language : Spanish (Latin America) Default : No Forced : No Text #4 ID : 7 Format : UTF-8 Codec ID : S_TEXT/UTF8 Codec ID/Info : UTF-8 Plain Text Duration : 1 h 35 min Bit rate : 70 b/s Frame rate : 0.254 FPS Count of elements : 1459 Stream size : 49.7 KiB (0%) Title : Portuguese Language : Portuguese (BR) Default : No Forced : No Menu 00:00:00.000 : en:Chapter 01 00:05:57.625 : en:Chapter 02 00:15:42.375 : en:Chapter 03 00:23:09.750 : en:Chapter 04 00:32:57.583 : en:Chapter 05 00:41:28.000 : en:Chapter 06 00:51:52.208 : en:Chapter 07 00:58:35.458 : en:Chapter 08 01:05:32.458 : en:Chapter 09 01:14:30.333 : en:Chapter 10 01:21:20.292 : en:Chapter 11 01:30:17.000 : en:Chapter 12
[+] Скриншоты

Всего файлов в раздаче: 1 
Good.Luck.to.You.Leo.Grande.2022.1080p.BluRay.x264-iFT_EniaHD.mkv10.72 GB

Похожие раздачи по запросу - Любовь
Сегодня magnet Влад Сташевский - Любовь здесь больше не живёт (1994) MP3 80.82 MB ↑ 0 ↓ 0
Сегодня magnet Любовь до последнего / Expiration Date / Casi muerta (2023) WEB-DLRip от New-Team | P | Кинопоиск HD 1.46 GB ↑ 0 ↓ 0
2024-04-09 magnet Сколько стоит любовь [S01] (2024) WEB-DLRip-AVC от Files-x 2.40 GB ↑ 1 ↓ 0
2024-04-08 magnet Сколько стоит любовь [S01] (2024) WEB-DL 1080p от Files-x 5.14 GB ↑ 0 ↓ 0
2024-04-08 magnet Сколько стоит любовь [S01] (2024) WEB-DL 720p от Files-x 2.91 GB ↑ 0 ↓ 0
2024-04-08 magnet Сколько стоит любовь [S01] (2024) WEB-DLRip от Files-x 2.36 GB ↑ 0 ↓ 0
2024-04-07 magnet Сколько живет любовь [01-04 из 04] (2019) WEB-DL 1080p 4.92 GB ↑ 0 ↓ 0

Комментарии


Зарегистрируйтесь чтобы добавить комментарий
Торрент клиент
byTorrent - программа для загрузки торрент-файлов.

Скачать byTorrent.exe (1,5 МБ)

Скачать byTorrent.zip (0,6 МБ)

Поддержи torrent.by
российских рублей
(300 российских рублей это 4$)

Обратная связь rss

End game ©