↑↓torrent.by
Поиск
Логин:  Регистрация
Пароль:

Казачок [01-03 из 08] (2024) WEBRip 1080p

download Скачать торрент-файл   magnet Магнитная ссылка Размер: 2.31 GB Добавлен: 2024-04-01 05:00
Пиры будут получены из сети DHT
Последний сидер был замечен 2024-04-03 12:16
Информация о фильме Оригинальное название: Казачок Год выпуска: 2024 Жанр: Приключения, комедия Страна: Россия Производство: Свердловск, ТНТ Режиссер: Игорь Зайцев В ролях: Алексей Лукин, Алексей Кравченко, Николай Шрайбер, Георгий Дронов, Виталий Кищенко, Владимир Епифанцев, Виктория Разумовская, Александр Новиков, Константин Мирошников, Алексей Макаров, Олеся Судзиловская, Марина Лебедева, Юлия Бедарева, Роман Юнусов Описание: Родители отправляют школьника Стёпу на летние каникулы в деревню к бабушке — в качестве наказания. Здесь он вынужден отказаться от современных технологических благ и жить по правилам деревни. Убегая в очередной раз от местных подростков, Степа пытается спрятаться в колодце, но проваливается в него. Выбравшись наружу, он осознает, что оказался в настоящей казачьей станице 17-го века. В важнейший исторический момент нашей страны. По воле судьбы, Стёпа многому научится у своих далеких предков, найдёт настоящих друзей и на практике освоит заваленный в школе урок истории. Продолжительность: ~00:24:00 Язык: Русский Субтитры: нет Файл Качество: WEBRip 1080p Формат: MKV Видео кодек: H.264 Аудио кодек: AC3 Видео: MPEG4 AVC Video, H264, 16:9, 1920x1072, 25 fps, ~4400 kbps, 0.085 bit/pixel Аудио: AC3, 2 ch, 192 kbps, 16 bits, 48.0 KHz
[+] MIGeneral Unique ID : 158816113460957335149602460330627269920 (0x777ADEF074B5D5224866FCE34BE18520) Complete name : W:Kazachok.S01.WEB-DL.1080p.MrMittensKazachok.S01.E01.WEB-DL.1080p.MrMittens.mkv Format : Matroska Format version : Version 4 / Version 2 File size : 785 MiB Duration : 24 min 5 s Overall bit rate mode : Variable Overall bit rate : 4 556 kb/s Encoded date : UTC 2024-03-31 17:01:00 Writing application : mkvmerge v43.0.0 ('The Quartermaster') 64-bit Writing library : libebml v1.3.10 + libmatroska v1.5.2 Video ID : 1 Format : AVC Format/Info : Advanced Video Codec Format profile : High@L4.1 Format settings : CABAC / 4 Ref Frames Format settings, CABAC : Yes Format settings, ReFrames : 4 frames Codec ID : V_MPEG4/ISO/AVC Duration : 24 min 5 s Bit rate mode : Variable Bit rate : 4 363 kb/s Maximum bit rate : 4 500 kb/s Width : 1 920 pixels Height : 1 072 pixels Display aspect ratio : 16:9 Frame rate mode : Constant Frame rate : 25.000 FPS Color space : YUV Chroma subsampling : 4:2:0 Bit depth : 8 bits Scan type : Progressive Bits/(Pixel*Frame) : 0.085 Stream size : 751 MiB (96%) Language : English Default : Yes Forced : No Color range : Limited Color primaries : BT.709 Transfer characteristics : BT.709 Matrix coefficients : BT.709 Audio ID : 2 Format : AC-3 Format/Info : Audio Coding 3 Codec ID : A_AC3 Duration : 24 min 5 s Bit rate mode : Constant Bit rate : 192 kb/s Channel(s) : 2 channels Channel positions : Front: L R Sampling rate : 48.0 kHz Frame rate : 31.250 FPS (1536 SPF) Bit depth : 16 bits Compression mode : Lossy Delay relative to video : -120 ms Stream size : 33.1 MiB (4%) Language : Russian Service kind : Complete Main Default : Yes Forced : No
[+] Скриншоты

Всего файлов в раздаче: 3 
Kazachok.S01.E01.WEB-DL.1080p.MrMittens.mkv784.89 MB
Kazachok.S01.E02.WEB-DL.1080p.MrMittens.mkv796.35 MB
Kazachok.S01.E03.WEB-DL.1080p.MrMittens.mkv782.27 MB

Похожие раздачи по запросу - Казачок
2024-04-07 magnet Казачок [S01] (2024) WEBRip-AVC от Generalfilm | КПК 874.30 MB ↑ 0 ↓ 0
2024-04-05 magnet Казачок [S01] (2024) WEB-DLRip от Files-х 2.35 GB ↑ 0 ↓ 0
2024-04-05 magnet Казачок [S01] (2024) WEB-DL 720p от ExKinoRay 4.93 GB ↑ 0 ↓ 0
2024-04-05 magnet Казачок [S01] (2024) WEB-DL 1080p от ExKinoRay 7.39 GB ↑ 0 ↓ 0
2024-04-05 magnet Казачок [S01] (2024) WEB-DLRip-AVC от ExKinoRay 2.31 GB ↑ 0 ↓ 0
2024-04-05 magnet Казачок [S01] (2024) WEB-DLRip-AVC от Files-х 2К2.42 GB ↑ 0 ↓ 0
2024-04-04 magnet Казачок [01х01-07 из 08] (2024) WEB-DLRip-AVC от Files-х 2.11 GB ↑ 0 ↓ 0

Комментарии

buratinu
вот это подгон. Холоп 3: хлопчик

djkirik
Ну правильно, чего зря декорациям с "Холопа 2" пропадать?!


Зарегистрируйтесь чтобы добавить комментарий
Торрент клиент
byTorrent - программа для загрузки торрент-файлов.

Скачать byTorrent.exe (1,5 МБ)

Скачать byTorrent.zip (0,6 МБ)

Поддержи torrent.by
российских рублей
(300 российских рублей это 4$)

Обратная связь rss

End game ©