↑↓torrent.by
Поиск
Логин:  Регистрация
Пароль:

Звериный рейс / Noah's Ark (2024) WEB-DLRip-AVC от DoMiNo & селезень | D | Локализованная версия

download Скачать торрент-файл   magnet Магнитная ссылка Размер: 1.46 GB Добавлен: 2024-04-01 11:00
Пиры будут получены из сети DHT
Последний сидер был замечен 2024-04-04 21:56
Информация о фильме Название: Звериный рейс Оригинальное название: Noah's Ark Год выхода: 2024 Жанр: Мультфильм, мюзикл, приключения, семейный, детский, полнометражный Режиссер: Алоис Ди Лео, Сержиу Мачаду, Рене Вейю В ролях: Родриго Санторо, Марсело Аднет, Алиси Брага, Кит Силверштейн, Иэн Джеймс Корлетт, Луис Бермудес, Лэйла Макканн, Дебра Уилсон, Кристофер Кори Смит, Трия Леон О фильме: Вини и Том - два невероятно веселых мышонка-музыканта, которые обожают выступать на публике. Однажды они оказываются в доме Ноя накануне всемирного потопа и узнают о ковчеге, места в котором строго ограничены. Братьям предстоит придумать хитрый план, чтобы отправиться в невероятное путешествие полное приключений вместе и… не утонуть. Правда, пробраться на ковчег - это лишь полдела. Смогут ли они ужиться с новыми соседями и не стать обедом для хищников? Страна: Бразилия, Индия Студия: Globo Filmes, Gullane Filmes, NIP, Symbiosys Technologies, VideoFilmes Продолжительность: 01:34:22 Перевод: Профессиональный (полное дублирование) | Vox Records Субтитры: Русские (Full) Файл Формат: Matroska Качество: WEB-DLRip-AVC | Локализованная версия Видео: 1024x576 at 24.000 fps, x264@L4.1, ~1834 kbps Аудио: AC3, 6 ch, ~384 kbps - | Русский | Формат субтитров: softsub (SRT) ***Рип от: -=DoMiNo=-
[+] M/IGeneral Unique ID : 204508160188170682381037057888989618169 (0x99DAD6C5F01FBB8750B6DFFEA56E1FF9) Complete name : I:Noah's.Ark.2024.DUB.WEB-DLRip.x264.seleZen.mkv Format : Matroska Format version : Version 4 File size : 1.46 GiB Duration : 1 h 34 min Overall bit rate : 2 219 kb/s Frame rate : 24.000 FPS Movie name : Noah's.Ark.2024.DUB.WEB-DLRip.x264.seleZen Encoded date : 2024-03-31 18:51:51 UTC Writing application : mkvmerge v83.0 ('Circle Of Friends') 64-bit Writing library : libebml v1.4.5 + libmatroska v1.7.1 Cover : Yes Attachments : cover.jpg / small_cover.jpg Video ID : 1 Format : AVC Format/Info : Advanced Video Codec Format profile : High@L4.1 Format settings : CABAC / 14 Ref Frames Format settings, CABAC : Yes Format settings, Reference : 14 frames Codec ID : V_MPEG4/ISO/AVC Duration : 1 h 34 min Bit rate : 1 834 kb/s Width : 1 024 pixels Height : 576 pixels Display aspect ratio : 16:9 Frame rate mode : Constant Frame rate : 24.000 FPS Color space : YUV Chroma subsampling : 4:2:0 Bit depth : 8 bits Scan type : Progressive Bits/(Pixel*Frame) : 0.130 Stream size : 1.21 GiB (83%) Title : -=DoMiNo=- Writing library : x264 core 164 r3190 -DoMiNo Encoding settings : cabac=1 / ref=14 / deblock=1:0:0 / analyse=0x3:0x133 / me=umh / subme=10 / psy=1 / psy_rd=1.00:0.00 / mixed_ref=1 / me_range=32 / chroma_me=1 / trellis=2 / 8x8dct=1 / cqm=0 / deadzone=21,11 / fast_pskip=0 / chroma_qp_offset=-2 / threads=18 / lookahead_threads=3 / sliced_threads=0 / nr=0 / decimate=0 / interlaced=0 / bluray_compat=0 / constrained_intra=0 / bframes=8 / b_pyramid=2 / b_adapt=2 / b_bias=0 / direct=3 / weightb=1 / open_gop=0 / weightp=2 / keyint=240 / keyint_min=24 / scenecut=40 / intra_refresh=0 / rc_lookahead=60 / rc=2pass / mbtree=0 / bitrate=1834 / ratetol=1.0 / qcomp=0.70 / qpmin=0 / qpmax=69 / qpstep=4 / cplxblur=20.0 / qblur=0.5 / vbv_maxrate=50000 / vbv_bufsize=62500 / nal_hrd=none / filler=0 / ip_ratio=1.18 / pb_ratio=1.37 / aq=2:1.00 Language : English Default : Yes Forced : No Color range : Limited Color primaries : BT.709 Transfer characteristics : BT.709 Matrix coefficients : BT.709 Audio ID : 2 Format : AC-3 Format/Info : Audio Coding 3 Commercial name : Dolby Digital Codec ID : A_AC3 Duration : 1 h 34 min Bit rate mode : Constant Bit rate : 384 kb/s Channel(s) : 6 channels Channel layout : L R C LFE Ls Rs Sampling rate : 48.0 kHz Frame rate : 31.250 FPS (1536 SPF) Compression mode : Lossy Stream size : 259 MiB (17%) Title : Dub Language : Russian Service kind : Complete Main Default : Yes Forced : No Text ID : 3 Format : UTF-8 Codec ID : S_TEXT/UTF8 Codec ID/Info : UTF-8 Plain Text Duration : 1 h 23 min Bit rate : 101 b/s Frame rate : 0.270 FPS Count of elements : 1354 Stream size : 62.2 KiB (0%) Title : Full Language : Russian Default : No Forced : No Menu 00:00:00.000 : en:Chapter 01 00:05:50.000 : en:Chapter 02 00:11:40.000 : en:Chapter 03 00:17:30.000 : en:Chapter 04 00:23:20.000 : en:Chapter 05 00:29:10.000 : en:Chapter 06 00:35:00.000 : en:Chapter 07 00:40:50.000 : en:Chapter 08 00:46:40.000 : en:Chapter 09 00:52:30.000 : en:Chapter 10 00:58:20.000 : en:Chapter 11 01:04:10.000 : en:Chapter 12 01:10:00.000 : en:Chapter 13 01:15:50.000 : en:Chapter 14 01:21:40.000 : en:Chapter 15 01:27:30.000 : en:Chapter 16 01:33:20.000 : en:Chapter 17
Релиз: Присоединяйся к: Кликай на баннеры.

Всего файлов в раздаче: 1 
Noah's.Ark.2024.DUB.WEB-DLRip.x264.seleZen.mkv1.46 GB

Похожие раздачи по запросу - Звериный
2024-03-31 magnet Звериный рейс / Noah's Ark (2024) WEB-DLRip-AVC от ExKinoRay | D 1.71 GB ↑ 0 ↓ 0
2024-03-30 magnet Звериный рейс / Noah's Ark (2024) WEB-DL 1080p от ExKinoRay | D 4.44 GB ↑ 0 ↓ 0
2024-03-21 magnet Звериный рейс / Noah's Arkl (2024) WEB-DL 1080p | D 3.78 GB ↑ 1 ↓ 1
2024-03-21 magnet Звериный рейс / Noah's Arkl (2024) WEB-DLRip от MegaPeer | D 1.46 GB ↑ 0 ↓ 1

Комментарии


Зарегистрируйтесь чтобы добавить комментарий
Торрент клиент
byTorrent - программа для загрузки торрент-файлов.

Скачать byTorrent.exe (1,5 МБ)

Скачать byTorrent.zip (0,6 МБ)

Поддержи torrent.by
российских рублей
(300 российских рублей это 4$)

Обратная связь rss

End game ©