↑↓torrent.by
Поиск
Логин:  Регистрация
Пароль:

Воздух (2023) WEB-DL 720p

download Скачать торрент-файл   magnet Магнитная ссылка Размер: 4.36 GB Добавлен: 2024-04-01 11:00
Пиры будут получены из сети DHT
Последний сидер был замечен вчера в 13:45
Информация о фильме Название: Воздух Год выхода: 2023 Жанр: Военный, драма, история Режиссер: Алексей Герман мл. В ролях: Анастасия Талызина, Аглая Тарасова, Кристина Лапшина, Сергей Безруков, Елена Лядова, Олег Гринченко, Антон Шагин, Кристина Исайкина-Бергер, Игорь Митюшкин, Игорь Коровин, олина Дудкина, Петр Логачев, Филипп Дьячков, Анна Исаева, Мария Мельникова, Дарья Шевелько, Маруся Фурина, Алёна Митюшкина, Юлия Шишова, Кирилл Якушенко, Анна Простова, Михаил Самарин, Юлия Маркова, Наталья Корольская, Роман Каун, Варвара Бархвиц, Анна Екатерининская, Андрей Кондратьев, Валентина Семченко, Николай Стародубцев, Мария Герасименко, Анна Мустина, Валерия Богданова, Маша Понмари О фильме: Великая Отечественная война. В СССР идут тяжелые бои, немецкая армия наступает. В смешанный авиационный полк прибывает подразделение летчиц. Все они — юные, необстрелянные и сперва не совсем понимают, что такое война. Девушкам приходится трудно в мужском мире, но они день за днем в череде воздушных схваток доказывают, что они не хуже мужчин. Страна: Россия Студия: АМЕДИА, Первый канал, Метрафильмс Продолжительность: 02:31:25 Язык: Русский Премьера в Росcии: 26 октября 2023 года Цифровой релиз: 01 апреля 2024 года Примечание: Без рекламы Возраст: 18+ Файл Формат: MKV Качество: WEB-DL 720p Видео: MPEG-4 AVC, ~ 3676 Кбит/с, 1280x536 Звук: AC3, 6 ch, 384 Кбит/с Субтитры: Отсутствуют Семпл
[+] Скриншоты
[+] MIОбщее Уникальный идентификатор : 144165424094361199235398905586389371358 (0x6C75402F3E0CB639989842205FD449DE) Полное имя : C:UsersAdminDesktopВоздух (2023) WEB-DL 720p.mkv Формат : Matroska Версия формата : Version 4 Размер файла : 4,36 Гбайт Продолжительность : 2 ч. 31 м. Общий поток : 4 125 Кбит/сек Дата кодирования : UTC 2024-04-01 05:17:09 Программа кодирования : mkvmerge v51.0.0 ('I Wish') 64-bit Библиотека кодирования : libebml v1.4.0 + libmatroska v1.6.2 Видео Идентификатор : 1 Формат : AVC Формат/Информация : Advanced Video Codec Профиль формата : High@L4 Настройки формата : CABAC / 5 Ref Frames Параметр CABAC формата : Да Параметр RefFrames формата : 5 кадров Идентификатор кодека : V_MPEG4/ISO/AVC Продолжительность : 2 ч. 31 м. Битрейт : 3 676 Кбит/сек Ширина : 1 280 пикселей Высота : 536 пикселей Соотношение сторон : 2,40:1 Режим частоты кадров : Постоянный Частота кадров : 25,000 кадров/сек Цветовое пространство : YUV Субдискретизация насыщенности : 4:2:0 Битовая глубина : 8 бит Тип развёртки : Прогрессивная Бит/(Пиксели*Кадры) : 0.214 Размер потока : 3,89 Гбайт (89%) Библиотека кодирования : x264 core 157 r2935 545de2f Настройки программы : cabac=1 / ref=5 / deblock=1:0:0 / analyse=0x3:0x113 / me=hex / subme=8 / psy=1 / psy_rd=1.00:0.00 / mixed_ref=1 / me_range=16 / chroma_me=1 / trellis=2 / 8x8dct=1 / cqm=0 / deadzone=21,11 / fast_pskip=1 / chroma_qp_offset=-2 / threads=17 / lookahead_threads=2 / sliced_threads=0 / nr=0 / decimate=1 / interlaced=0 / bluray_compat=0 / constrained_intra=0 / bframes=3 / b_pyramid=2 / b_adapt=1 / b_bias=0 / direct=3 / weightb=1 / open_gop=0 / weightp=2 / keyint=250 / keyint_min=25 / scenecut=40 / intra_refresh=0 / rc_lookahead=50 / rc=2pass / mbtree=1 / bitrate=3676 / ratetol=1.0 / qcomp=0.60 / qpmin=0 / qpmax=69 / qpstep=4 / cplxblur=20.0 / qblur=0.5 / vbv_maxrate=25000 / vbv_bufsize=31250 / nal_hrd=none / filler=0 / ip_ratio=1.40 / aq=1:1.00 Default : Да Forced : Нет Цветовой диапазон : Limited Основные цвета : BT.709 Характеристики трансфера : BT.709 Коэффициенты матрицы : BT.709 Аудио Идентификатор : 2 Формат : AC-3 Формат/Информация : Audio Coding 3 Коммерческое название : Dolby Digital Идентификатор кодека : A_AC3 Продолжительность : 2 ч. 31 м. Вид битрейта : Постоянный Битрейт : 448 Кбит/сек Каналы : 6 каналов Channel layout : L R C LFE Ls Rs Частота : 48,0 КГц Частота кадров : 31,250 кадров/сек (1536 SPF) Метод сжатия : С потерями Размер потока : 485 Мбайт (11%) Язык : Russian Service kind : Complete Main Default : Да Forced : Да

Всего файлов в раздаче: 1 
Воздух (2023) WEB-DL 720p.mkv4.36 GB

Похожие раздачи по запросу - Воздух
2024-04-06 magnet Воздух (2023) WEB-DLRip-AVC от DoMiNo 745.53 MB ↑ 0 ↓ 1
2024-04-02 magnet Воздух (2023) WEB-DLRip от Generalfilm | КПК 575.90 MB ↑ 0 ↓ 0
2024-04-01 magnet Воздух [2023, военный, драма, история, WEB-DLRip-AVC] 2.18 GB ↑ 1 ↓ 0
2024-04-01 magnet Воздух (2023) WEB-DL 720p от ExKinoRay | КиноПоиск HD 6.11 GB ↑ 0 ↓ 0
2024-04-01 magnet Воздух (2023) WEB-DLRip-AVC от MegaPeer 2.17 GB ↑ 0 ↓ 1
2024-04-01 magnet Воздух (2023) WEB-DLRip от MegaPeer 1.46 GB ↑ 2 ↓ 0
2024-04-01 magnet Воздух (2023) WEB-DLRip от ELEKTRI4KA | КиноПоиск HD 2.19 GB ↑ 0 ↓ 0

Комментарии


Зарегистрируйтесь чтобы добавить комментарий
Торрент клиент
byTorrent - программа для загрузки торрент-файлов.

Скачать byTorrent.exe (1,5 МБ)

Скачать byTorrent.zip (0,6 МБ)

Поддержи torrent.by
российских рублей
(300 российских рублей это 4$)

Обратная связь rss

End game ©