↑↓torrent.by
Поиск
Логин:  Регистрация
Пароль:

Джентльмен в Москве / A Gentleman in Moscow [01x01 из 08] (2024) WEB-DL 1080p от Jaskier | P

download Скачать торрент-файл   magnet Магнитная ссылка Размер: 3.42 GB Добавлен: 2024-04-01 11:00
Пиры будут получены из сети DHT
Последний сидер был замечен 2024-04-02 21:03
Информация о фильме Название: Джентльмен в Москве Оригинальное название: A Gentleman in Moscow Год выхода: 2024 Жанр: триллер, драма, история Режиссер: Сэм Миллер, Сара О’Горман В ролях: Юэн Макгрегор, Мэри Элизабет Уинстэд, Бо Гадсдон, Джонни Харрис, Леа Харви, Анастасия Хилл, Пол Рэди, Алекса Гудолл, Бьёдн Хлинур Харальдссон, Джон Хеффернан О фильме: Экранизация одноименной книги Амора Тоулза. 1922 год. Аристократ граф Александр Ростов попадает под трибунал из-за давно написанного стихотворения, но вместо расстрела его отправляют в мансардный номер роскошного отеля «Метрополь», который Александр не может покидать до самой смерти. Страна: Великобритания Студия: Entertainment One, Moonriver, Paramount Продолжительность: ~00:50:00 Перевод: Профессиональный (многоголосый закадровый) Jaskier Файл Кодек: MKV Качество: WEB-DL 1080p Видео: AVC, 1920x1080 (16:9), 23.976 fps, ~8874 kbps Звук: Аудио 1: Русский, AC-3, 48 kHz, 6 ch, 384 kbps | Jaskier Аудио 2: Английский, E-AC-3, 48 kHz, 6 ch, 640 kbps Субтитры: Английские (Full, SDH) Семпл
[+] MediaInfo General Unique ID : 204141413339404548852963462929813823605 (0x999434C1EB997837B1D1E1BC491F6075) Complete name : E:TorrentA.Gentleman.in.Moscow.S01.1080p.AMZN.WEB-DL.DDP5.1.H.264-JaskierA.Gentleman.in.Moscow.S01E01.A.Master.of.Circumstance.1080p.AMZN.WEB-DL.DDP5.1.H.264-Jaskier.mkv Format : Matroska Format version : Version 4 File size : 3.42 GiB Duration : 48 min 28 s Overall bit rate : 10.1 Mb/s Frame rate : 23.976 FPS Encoded date : 2024-03-31 19:18:35 UTC Writing application : mkvmerge v6.6.0 ('The Edge Of The In Between') built on Dec 1 2013 17:55:00 Writing library : libebml v1.3.0 + libmatroska v1.4.1 Video ID : 1 Format : AVC Format/Info : Advanced Video Codec Format profile : High@L4 Format settings : CABAC / 4 Ref Frames Format settings, CABAC : Yes Format settings, Reference frames : 4 frames Codec ID : V_MPEG4/ISO/AVC Duration : 48 min 28 s Bit rate mode : Constant Bit rate : 8 874 kb/s Nominal bit rate : 10 000 kb/s Width : 1 920 pixels Height : 1 080 pixels Display aspect ratio : 16:9 Frame rate mode : Constant Frame rate : 23.976 (24000/1001) FPS Color space : YUV Chroma subsampling : 4:2:0 Bit depth : 8 bits Scan type : Progressive Bits/(Pixel*Frame) : 0.178 Stream size : 3.00 GiB (88%) Language : English Default : Yes Forced : No Color range : Limited Color primaries : BT.709 Transfer characteristics : BT.709 Matrix coefficients : BT.709 Audio #1 ID : 2 Format : AC-3 Format/Info : Audio Coding 3 Commercial name : Dolby Digital Codec ID : A_AC3 Duration : 48 min 28 s Bit rate mode : Constant Bit rate : 384 kb/s Channel(s) : 6 channels Channel layout : L R C LFE Ls Rs Sampling rate : 48.0 kHz Frame rate : 31.250 FPS (1536 SPF) Compression mode : Lossy Stream size : 133 MiB (4%) Title : Jaskier Language : Russian Service kind : Complete Main Default : Yes Forced : No Audio #2 ID : 3 Format : E-AC-3 Format/Info : Enhanced AC-3 Commercial name : Dolby Digital Plus Codec ID : A_EAC3 Duration : 48 min 28 s Bit rate mode : Constant Bit rate : 640 kb/s Channel(s) : 6 channels Channel layout : L R C LFE Ls Rs Sampling rate : 48.0 kHz Frame rate : 31.250 FPS (1536 SPF) Compression mode : Lossy Stream size : 222 MiB (6%) Title : Original Language : English Service kind : Complete Main Default : No Forced : No Text #1 ID : 4 Format : UTF-8 Codec ID : S_TEXT/UTF8 Codec ID/Info : UTF-8 Plain Text Language : English Default : No Forced : No Text #2 ID : 5 Format : UTF-8 Codec ID : S_TEXT/UTF8 Codec ID/Info : UTF-8 Plain Text Title : SDH Language : English Default : No Forced : No
[+] Скриншоты
Релиз от: Jaskier

Всего файлов в раздаче: 1 
A.Gentleman.in.Moscow.S01E01.A.Master.of.Circumstance.1080p.AMZN.WEB-DL.DDP5.1.H.264-Jaskier.mkv3.42 GB

Похожие раздачи по запросу - Джентльмен
2024-04-09 magnet Джентльмен в Москве / A Gentleman in Moscow [01x01-02 из 08] (2024) WEB-DLRip-AVC от DoMiNo & селезень | Jaskier, Red Head Sound, LostFilm 1.79 GB ↑ 0 ↓ 0
2024-04-08 magnet Джентльмен в Москве / A Gentleman in Moscow [01x01-02 из 08] (2024) WEB-DL 1080p от Jaskier | P 7.03 GB ↑ 0 ↓ 1
2024-04-07 magnet Джентльмен в Москве / A Gentleman in Moscow [01x01-02 из 08] (2024) WEBRip 1080p | ViruseProject 1К3.52 GB ↑ 0 ↓ 1
2024-04-07 magnet Джентльмен в Москве / A Gentleman in Moscow [01x01-02 из 08] (2024) WEBRip | ViruseProject 1.15 GB ↑ 0 ↓ 0
2024-04-02 magnet Джентльмен в Москве / A Gentleman in Moscow [01x01 из 08] (2024) WEB-DL 1080p от ExKinoRay | P | Red Head Sound 3.35 GB ↑ 0 ↓ 0
2024-03-31 magnet Джентльмен в Москве / A Gentleman in Moscow [01x01 из 08] (2024) WEBRip 1080p | ViruseProject 1К1.71 GB ↑ 0 ↓ 0
2024-03-31 magnet Джентльмен в Москве / A Gentleman in Moscow [01x01 из 08] (2024) WEBRip | ViruseProject 571.05 MB ↑ 0 ↓ 0

Комментарии


Зарегистрируйтесь чтобы добавить комментарий
Торрент клиент
byTorrent - программа для загрузки торрент-файлов.

Скачать byTorrent.exe (1,5 МБ)

Скачать byTorrent.zip (0,6 МБ)

Поддержи torrent.by
российских рублей
(300 российских рублей это 4$)

Обратная связь rss

End game ©