↑↓torrent.by
Поиск
Логин:  Регистрация
Пароль:

Брат (1997) WEB-DLRip 720p от New-Team

download Скачать торрент-файл   magnet Магнитная ссылка Размер: 2.91 GB Добавлен: 2024-04-01 11:00
Пиры будут получены из сети DHT
Последний сидер был замечен 2024-04-01 20:41
Страна: Россия Производство: Кинокомпания "СТВ" Жанр: боевик Год выпуска: 1997 Продолжительность: 01:35:22 Перевод: не требуется Оригинальная аудиодорожка: русский Cубтитры: нет Режиссер: Алексей Балабанов В ролях: Сергей Бодров (младший), Виктор Сухоруков, Светлана Письмиченко, Мария Жукова, Юрий Кузнецов, Вячеслав Бутусов, Ирина Ракшина, Сергей Мурзин, Анатолий Журавлёв, Игорь Шибанов, Андрей Федорцов... Подробнее об актерах Описание: Демобилизованный из армии Данила Багров возвращается в родной город. Скучная, однообразная жизнь провинции не может устроить крепкого русского парня, и он решает поехать в Питер, испытать себя. Тем более, что там, по слухам уже давно процветает его старший брат. Но «новая русская» жизнь северной столицы оказывается слишком неожиданной, а родной брат Данилы зарабатывает на жизнь заказными убийствами. Даниле предстоит многое узнать… и со многими разобраться. Исходник: WEB-DL 1080p Тип релиза: WEB-DLRip 720p Контейнер: MKV Видео: 1280x720 (16:9), 25,000 кадров/сек, x264 core 164 r3182 ~ 3 915 кбит/сек, 0.170 бит/пиксель Аудио: 48 кГц, Dolby Digital AC3 5.1, 448 кбит/сек Раздача от:
[+] MediaInfo Общее Полное имя : Брат.1997.WEB-DLRip720p__by_AVP_Studio.mkv Формат : Matroska Версия формата : Version 2 Размер файла : 2,91 Гбайт Продолжительность : 1 ч. 35 м. Общий поток : 4 363 Кбит/сек Частота кадров : 25,000 кадров/сек Дата кодирования : 2024-03-29 13:28:53 UTC Программа кодирования : mkvmerge v6.9.1 ('Blue Panther') 32bit built on Apr 18 2014 18:15:44 Библиотека кодирования : libebml v1.3.0 + libmatroska v1.4.1 Видео Идентификатор : 1 Формат : AVC Формат/Информация : Advanced Video Codec Профиль формата : High@L4.1 Настройки формата : CABAC / 8 Ref Frames Параметр CABAC формата : Да Параметр RefFrames формата : 8 кадров Идентификатор кодека : V_MPEG4/ISO/AVC Продолжительность : 1 ч. 35 м. Битрейт : 3 915 Кбит/сек Ширина : 1 280 пикселей Высота : 720 пикселей Соотношение сторон : 16:9 Режим частоты кадров : Постоянный Частота кадров : 25,000 кадров/сек Цветовое пространство : YUV Субдискретизация насыщенности : 4:2:0 Битовая глубина : 8 бит Тип развёртки : Прогрессивная Бит/(Пиксели*Кадры) : 0.170 Размер потока : 2,55 Гбайт (88%) Библиотека кодирования : x264 core 164 r3182 be4f020 Настройки программы : cabac=1 / ref=8 / deblock=1:-3:-3 / analyse=0x3:0x133 / me=umh / subme=10 / psy=1 / psy_rd=1.00:0.00 / mixed_ref=1 / me_range=32 / chroma_me=1 / trellis=2 / 8x8dct=1 / cqm=0 / deadzone=21,11 / fast_pskip=1 / chroma_qp_offset=-2 / threads=6 / lookahead_threads=1 / sliced_threads=0 / nr=0 / decimate=0 / interlaced=0 / bluray_compat=0 / constrained_intra=0 / bframes=8 / b_pyramid=2 / b_adapt=2 / b_bias=0 / direct=3 / weightb=1 / open_gop=0 / weightp=2 / keyint=250 / keyint_min=25 / scenecut=40 / intra_refresh=0 / rc=2pass / mbtree=0 / bitrate=3915 / ratetol=1.0 / qcomp=0.60 / qpmin=0 / qpmax=69 / qpstep=4 / cplxblur=20.0 / qblur=0.5 / ip_ratio=1.40 / pb_ratio=1.30 / aq=1:1.00 Default : Да Forced : Нет Аудио Идентификатор : 2 Формат : AC-3 Формат/Информация : Audio Coding 3 Коммерческое название : Dolby Digital Идентификатор кодека : A_AC3 Продолжительность : 1 ч. 35 м. Вид битрейта : Постоянный Битрейт : 448 Кбит/сек Каналы : 6 каналов Channel layout : L R C LFE Ls Rs Частота : 48,0 КГц Частота кадров : 31,250 кадров/сек (1536 SPF) Метод сжатия : С потерями Размер потока : 306 Мбайт (10%) Default : Да Forced : Нет
[+] Скриншоты

Всего файлов в раздаче: 1 
Брат.1997.WEB-DLRip720p_[New-team]_by_AVP_Studio.mkv2.91 GB

Похожие раздачи по запросу - Брат
2024-04-01 magnet Брат 2 (2000) WEB-DLRip-AVC от New-Team 2.18 GB ↑ 0 ↓ 0
2024-04-01 magnet Брат 2 (2000) WEB-DLRip 720p от New-Team 3.65 GB ↑ 0 ↓ 0
2024-03-31 magnet Брат (1997) WEB-DLRip-AVC от New-Team 2.18 GB ↑ 0 ↓ 0
2023-12-18 magnet ВИА Волга-Волга - Брат лихой (2023) FLAC 287.43 MB ↑ 0 ↓ 0
2022-04-08 magnet Брат во всём (2022) WEB-DLRip 720p от DoMiNo | Wink 1.60 GB ↑ 0 ↓ 0

Комментарии


Зарегистрируйтесь чтобы добавить комментарий
Торрент клиент
byTorrent - программа для загрузки торрент-файлов.

Скачать byTorrent.exe (1,5 МБ)

Скачать byTorrent.zip (0,6 МБ)

Поддержи torrent.by
российских рублей
(300 российских рублей это 4$)

Обратная связь rss

End game ©