↑↓torrent.by
Поиск
Логин:  Регистрация
Пароль:

Соединенные Штаты Лиланда / The United States of Leland (2003) BDRip от New-Team | P2

download Скачать торрент-файл   magnet Магнитная ссылка Размер: 1.27 GB Добавлен: 2024-04-01 11:00
Пиры будут получены из сети DHT
Последний сидер был замечен 2024-04-01 11:00
Страна: США Производство: MDP Worldwide, Media 8 Entertainment, Thousand Words, Trigger Street Productions Жанр: драма, мелодрама, криминал Год выпуска: 2003 Продолжительность: 01:49:10 Перевод: Профессиональный (Двухголосый закадровый) Оригинальная аудиодорожка: английский Cубтитры: нет Режиссер: Мэттью Райан Ходж / Matthew Ryan Hoge В ролях: Кевин Спейси /Kevin Spacey/, Дон Чидл /Don Cheadle/, Лена Олин /Lena Olin/, Райан Гослинг /Ryan Gosling/, Мартин Донован /Martin Donovan/, Шерилин Фенн /Sherilyn Fenn/, Крис Клайн /Chris Klein/, Энн Магнусон /Ann Magnuson/, Джина Мэлоун /Jena Malone/... Подробнее об актерах Описание: 16-летний Лиланд Фицджеральд внезапно зверски убивает ребенка-аутиста. Все: родители, полиция, семья убитого ребенка, друзья, журналисты и сокамерники - пытаются понять причину такой жестокости. А Лиланд молчит... Почему? Возможно, он сам не знает причину своего поступка. Единственный ответ, который он дает - Из-за печали.Он сталкивается с вопросами морали и веры в тяжелых для себя обстоятельствах. В тюрьме Ли находит себе поддержку в лице своего учителя Перла. Перл пытается докопаться до истины и хочет написать о Лиланде книгу. Сначала все однозначно - один преступник и все остальные ужасаются тому, что он сделал. Но потом оказывается, что все эти люди - его отец (известный писатель), подруга-наркоманка, тюремный наставник сами находятся в одном шаге от пропасти, к которой приближались все эти годы... И не они помогают Лиланду, а Лиланд своим отношением к жизни, своим взглядом на мир помогает им разобраться в себе и найти правильный путь. Сделанного назад не вернешь, и даже если ты совершил проступок, это еще не значит, что жизнь на этом закончилась... Исходник: BDRemux 1080p Тип релиза: BDRip Контейнер: AVI Видео: 720x400 (1,875:1), 23,976 кадра/сек, XviD 73 ~ 1262 кбит/сек, 0.183 бит/пиксель Аудио: 48 кГц, Dolby Digital AC3 2.0, 192 кбит/сек DVO Аудио: 48 кГц, Dolby Digital AC3 2.0, 192 кбит/сек оригинал Раздача от:
[+] MediaInfo Общее Полное имя : Соединенные Штаты Лиланда.2003.BDRip__by_AVP_Studio.avi Формат : AVI Формат/Информация : Audio Video Interleave Настройки формата : BitmapInfoHeader / WaveFormatEx Размер файла : 1,27 Гбайт Продолжительность : 1 ч. 49 м. Общий поток : 1 662 Кбит/сек Частота кадров : 23,976 кадра/сек Видео Идентификатор : 0 Формат : MPEG-4 Visual Профиль формата : Advanced Simple@L5 Настройки формата : BVOP1 / Custom Matrix Параметр BVOP формата : 1 Параметр QPel формата : Нет Параметр GMC формата : Без точки перехода Параметр матрицы формата : Выборочная Идентификатор кодека : XVID Идентификатор кодека/Подсказка : XviD Продолжительность : 1 ч. 49 м. Битрейт : 1 262 Кбит/сек Ширина : 720 пикселей Высота : 400 пикселей Соотношение сторон : 16:9 Частота кадров : 23,976 (24000/1001) кадра/сек Цветовое пространство : YUV Субдискретизация насыщенности : 4:2:0 Битовая глубина : 8 бит Тип развёртки : Прогрессивная Метод сжатия : С потерями Бит/(Пиксели*Кадры) : 0.183 Размер потока : 985 Мбайт (76%) Библиотека кодирования : XviD 73 Аудио #1 Идентификатор : 1 Формат : AC-3 Формат/Информация : Audio Coding 3 Коммерческое название : Dolby Digital Идентификатор кодека : 2000 Продолжительность : 1 ч. 49 м. Вид битрейта : Постоянный Битрейт : 192 Кбит/сек Каналы : 2 канала Channel layout : L R Частота : 48,0 КГц Частота кадров : 31,250 кадров/сек (1536 SPF) Метод сжатия : С потерями Размер потока : 150 Мбайт (12%) Выравнивание : Соединение по промежуткам Продолжительность промежутка : 32 мс. (0,77 видеокадр) Аудио #2 Идентификатор : 2 Формат : AC-3 Формат/Информация : Audio Coding 3 Коммерческое название : Dolby Digital Идентификатор кодека : 2000 Продолжительность : 1 ч. 49 м. Вид битрейта : Постоянный Битрейт : 192 Кбит/сек Каналы : 2 канала Channel layout : L R Частота : 48,0 КГц Частота кадров : 31,250 кадров/сек (1536 SPF) Метод сжатия : С потерями Размер потока : 150 Мбайт (12%) Выравнивание : Соединение по промежуткам Продолжительность промежутка : 32 мс. (0,77 видеокадр)
[+] Скриншоты

Всего файлов в раздаче: 1 
Соединенные Штаты Лиланда.2003.BDRip_[New-team]_by_AVP_Studio.avi1.27 GB

Комментарии


Зарегистрируйтесь чтобы добавить комментарий
Торрент клиент
byTorrent - программа для загрузки торрент-файлов.

Скачать byTorrent.exe (1,5 МБ)

Скачать byTorrent.zip (0,6 МБ)

Поддержи torrent.by
российских рублей
(300 российских рублей это 4$)

Обратная связь rss

End game ©