↑↓torrent.by
Поиск
Логин:  Регистрация
Пароль:

Эхо / Echo [01x01-03 из 05] (2024) WEB-DLRip 1080p | D | Локализованная версия | Flarrow Films

download Скачать торрент-файл   magnet Магнитная ссылка Размер: 5.49 GB Добавлен: 2024-04-01 11:00
Пиры будут получены из сети DHT
Последний сидер был замечен 2024-04-01 11:00
Информация о фильме Название: Эхо Оригинальное название: Echo Год выхода: 2024 Жанр: фантастика, боевик, драма, криминал, детектив, приключения Режиссер: Сидни Фриланд, Катриона МакКензи В ролях: Алаква Кокс, Чэск Спенсер, Танту Кардинал, Грэм Грин, Девери Джейкобс, Коуди Лайтнинг, Винсент Д’Онофрио, Эндрю Ховард, Зан Маккларнон, Чарли Кокс, Томас Э. Салливан О фильме: Майя Лопес возвращается в родной город, где ей предстоит примириться со своим прошлым, восстановить связь с индейскими корнями, принять свою семью и местную общину. Страна: США Продолжительность: 00:48:48 Перевод: Дублированный (неофициальный) | Flarrow Films Роли озвучивали: Сергей Чихачёв, Василий Дахненко, Андрей Гриневич, Людмила Ильина, Евгений Рубцов, Никита Прозоровский, Константин Карасик, Сергей Пономарёв, Илья Исаев, Анна Мосолова, Дмитрий Лунёв, Инна Королёва, Ксения Скачкова, Андрей Маслов, Анастасия Лапина, Алексей Ядренников, Зарина Черткоева, Василиса Цветкова, Алёна Соколова Файл Формат:MKV Кодек: MPEG-4 AVC Качество: WEB-DLRip 1080p (Локализированный видеоряд) Видео: 1920х1040, ~ 5 854 kb/s, 24.000, 8 bits Аудио: AC-3, 192 kb/s, 2 channels, 48.0 kHz Субтитры: Русские (отключаемые UTF-8) Сэмпл: скачать
[+] MediaInfo General Unique ID : 60761891897962694319263342462088563842 (0x2DB65090BAA5A17E8D90B600B86CCC82) Complete name : C:Flarrow FilmsEcho.S01.1080p.D.Flarrow.FilmsEcho.S01E01.1080p.Flarrow.Films.mkv Format : Matroska Format version : Version 4 File size : 2.06 GiB Duration : 48 min 48 s Overall bit rate : 6 048 kb/s Encoded date : UTC 2024-03-16 19:12:40 Writing application : mkvmerge v45.0.0 ('Heaven in Pennies') 64-bit Writing library : libebml v1.3.10 + libmatroska v1.5.2 Video ID : 1 Format : AVC Format/Info : Advanced Video Codec Format profile : High@L4 Format settings : CABAC / 2 Ref Frames Format settings, CABAC : Yes Format settings, Reference : 2 frames Codec ID : V_MPEG4/ISO/AVC Duration : 48 min 48 s Bit rate : 5 854 kb/s Nominal bit rate : 6 186 kb/s Width : 1 920 pixels Height : 1 080 pixels Display aspect ratio : 16:9 Frame rate mode : Constant Frame rate : 24.000 FPS Color space : YUV Chroma subsampling : 4:2:0 Bit depth : 8 bits Scan type : Progressive Bits/(Pixel*Frame) : 0.118 Stream size : 2.00 GiB (97%) Writing library : x264 core 161 Encoding settings : cabac=1 / ref=2 / deblock=1:-1:-1 / analyse=0x3:0x113 / me=hex / subme=4 / psy=1 / psy_rd=1.00:0.15 / mixed_ref=0 / me_range=16 / chroma_me=1 / trellis=1 / 8x8dct=1 / cqm=0 / deadzone=21,11 / fast_pskip=1 / chroma_qp_offset=-1 / threads=12 / lookahead_threads=3 / sliced_threads=0 / nr=0 / decimate=1 / interlaced=0 / bluray_compat=0 / constrained_intra=0 / bframes=2 / b_pyramid=0 / b_adapt=1 / b_bias=0 / direct=1 / weightb=1 / open_gop=0 / weightp=1 / keyint=192 / keyint_min=19 / scenecut=40 / intra_refresh=0 / rc_lookahead=20 / rc=abr / mbtree=1 / bitrate=6186 / ratetol=1.0 / qcomp=0.60 / qpmin=0 / qpmax=69 / qpstep=4 / vbv_maxrate=8245 / vbv_bufsize=12371 / nal_hrd=none / filler=0 / ip_ratio=1.40 / aq=1:1.00 Default : Yes Forced : No Color range : Limited Color primaries : BT.709 Transfer characteristics : BT.709 Matrix coefficients : BT.709 Audio ID : 2 Format : AC-3 Format/Info : Audio Coding 3 Commercial name : Dolby Digital Codec ID : A_AC3 Duration : 48 min 48 s Bit rate mode : Constant Bit rate : 192 kb/s Channel(s) : 2 channels Channel layout : L R Sampling rate : 48.0 kHz Frame rate : 31.250 FPS (1536 SPF) Compression mode : Lossy Stream size : 67.0 MiB (3%) Service kind : Complete Main Default : Yes Forced : No Text ID : 3 Format : UTF-8 Codec ID : S_TEXT/UTF8 Codec ID/Info : UTF-8 Plain Text Duration : 41 min 39 s Bit rate : 43 b/s Frame rate : 0.160 FPS Count of elements : 400 Stream size : 13.4 KiB (0%) Default : Yes Forced : No
[+] Скриншоты
Релиз от: Flarrow Films Примечание: Релиз без рекламы.

Всего файлов в раздаче: 3 
Echo.S01E01.1080p.Flarrow.Films.mkv2.06 GB
Echo.S01E02.1080p.Flarrow.Films.mkv1.65 GB
Echo.S01E03.1080p.Flarrow.Films.mkv1.78 GB

Похожие раздачи по запросу - Эхо
2024-04-12 magnet Эхо / Echo [S01] (2024) WEB-DLRip 1080p | D | Локализованная версия | Flarrow Films 9.04 GB ↑ 0 ↓ 0
2024-04-08 magnet Эхо / Echo [01x01-04 из 05] (2024) WEB-DLRip 1080p | D | Локализованная версия | Flarrow Films 7.07 GB ↑ 0 ↓ 0
2024-04-02 magnet Мы эхо друг друга [S01] (2024) WEB-DL 1080p от Files-x 5.41 GB ↑ 0 ↓ 0
2024-04-02 magnet Мы эхо друг друга [S01] (2024) WEB-DLRip от Files-x 2.29 GB ↑ 0 ↓ 0
2024-04-01 magnet Мы эхо друг друга [S01] (2024) WEBRip 1080p 5.41 GB ↑ 0 ↓ 0
2024-03-31 magnet Мы эхо друг друга [S01] (2024) WEB-DLRip-AVC от Files-x 2.42 GB ↑ 0 ↓ 0
2024-03-25 magnet Эхо / Echo [01x01-02 из 05] (2024) WEB-DLRip 1080p | D | Локализованная версия | Flarrow Films 3.71 GB ↑ 0 ↓ 0

Комментарии


Зарегистрируйтесь чтобы добавить комментарий
Торрент клиент
byTorrent - программа для загрузки торрент-файлов.

Скачать byTorrent.exe (1,5 МБ)

Скачать byTorrent.zip (0,6 МБ)

Поддержи torrent.by
российских рублей
(300 российских рублей это 4$)

Обратная связь rss

End game ©