↑↓torrent.by
Поиск
Логин:  Регистрация
Пароль:

Гавань / Haven (2004) WEB-DL 1080p от KORSAR | D

download Скачать торрент-файл   magnet Магнитная ссылка Размер: 10.24 GB Добавлен: 2024-04-01 11:00
Пиры будут получены из сети DHT
Последний сидер был замечен 2024-04-04 18:26
Информация о фильме Название: Гавань Оригинальное название: Haven Год выпуска: 2004 Выпущено: Великобритания, Германия, США, Испания, Bob Yari Productions, El Camino Pictures, Whatever Pictures Жанр: Драма, криминал Режиссер: Фрэнк Флауэрс В ролях: Орландо Блум, Зое Салдана, Билл Пэкстон, Бобби Каннавале, Стефен Диллейн, Агнес Брукнер, Энтони Маки, Виктор Расук О фильме: Спокойному существованию жителей Каймановых островов пришел конец, когда там поселились богатые бизнесмены и их избалованные отпрыски, купающиеся в роскоши и привилегиях жизни без налогов. Местное население не могло остаться равнодушным ко всему происходящему. А когда девушка из богатой семьи и симпатичный местный парень полюбили друг друга, началась настоящая война. Продолжительность: 01:38:48 Перевод: Дублированный Субтитры: Русские, английские Навигация по главам: Есть Файл Качество: WEB-DL 1080p Видео: MPEG-4 AVC, 13,9 Мбит/сек, 1920x1040, 24,000 кадра/сек Аудио #1: AC3, 6 ch, 448 Кбит/сек | Русский, профессиональный (полное дублирование) студия Мосфильм-Мастер Аудио #2: EAC3, 2 ch, 224 Кбит/сек | Английский, оригинал
[+] Скриншоты
[+] Инфо-файлОбщее Уникальный идентификатор : 215083088761807028512036612182030139910 (0xA1CF7F0192ECC2B3931894E138DBC206) Полное имя : Гавань.2004.WEB-DL.1080p.mkv Формат : Matroska Версия формата : Version 2 Размер файла : 10,2 Гбайт Продолжительность : 1 ч. 38 м. Общий поток : 14,8 Мбит/сек Дата кодирования : UTC 2018-08-23 19:04:36 Программа кодирования : mkvmerge v5.8.0 ('No Sleep / Pillow') built on Sep 2 2012 15:37:04 Библиотека кодирования : libebml v1.2.3 + libmatroska v1.3.0 Видео Идентификатор : 1 Формат : AVC Формат/Информация : Advanced Video Codec Профиль формата : High@L4 Настройки формата : CABAC / 4 Ref Frames Параметр CABAC формата : Да Параметр RefFrames формата : 4 кадра Идентификатор кодека : V_MPEG4/ISO/AVC Продолжительность : 1 ч. 38 м. Битрейт : 13,9 Мбит/сек Ширина : 1920 пикселей Высота : 1040 пикселей Соотношение сторон : 1,85:1 Режим частоты кадров : Постоянный Частота кадров : 24,000 кадра/сек Цветовое пространство : YUV Субдискретизация насыщенности : 4:2:0 Битовая глубина : 8 бит Тип развёртки : Прогрессивная Бит/(Пиксели*Кадры) : 0.290 Размер потока : 9,57 Гбайт (93%) Язык : English По умолчанию : Да Принудительно : Нет Цветовой диапазон : Limited Основные цвета : BT.709 Характеристики трансфера : BT.709 Коэффициенты матрицы : BT.709 Аудио #1 Идентификатор : 2 Формат : AC-3 Формат/Информация : Audio Coding 3 Идентификатор кодека : A_AC3 Продолжительность : 1 ч. 38 м. Вид битрейта : Постоянный Битрейт : 448 Кбит/сек Каналы : 6 каналов Расположение каналов : Front: L C R, Side: L R, LFE Частота : 48,0 КГц Частота кадров : 31,250 кадров/сек (1536 SPF) Битовая глубина : 16 бит Метод сжатия : С потерями Размер потока : 317 Мбайт (3%) Заголовок : DUB | Мосфильм-Мастер Язык : Russian По умолчанию : Да Принудительно : Нет Аудио #2 Идентификатор : 3 Формат : E-AC-3 Формат/Информация : Enhanced Audio Coding 3 Идентификатор кодека : A_EAC3 Продолжительность : 1 ч. 38 м. Вид битрейта : Постоянный Битрейт : 224 Кбит/сек Каналы : 2 канала Расположение каналов : Front: L R Частота : 48,0 КГц Частота кадров : 187,500 кадров/сек (256 SPF) Метод сжатия : С потерями Размер потока : 158 Мбайт (2%) Заголовок : Original Язык : English По умолчанию : Нет Принудительно : Нет Текст #1 Идентификатор : 4 Формат : UTF-8 Идентификатор кодека : S_TEXT/UTF8 Идентификатор кодека/Информация : UTF-8 Plain Text Язык : Russian По умолчанию : Нет Принудительно : Нет Текст #2 Идентификатор : 5 Формат : UTF-8 Идентификатор кодека : S_TEXT/UTF8 Идентификатор кодека/Информация : UTF-8 Plain Text Заголовок : SDH Язык : English По умолчанию : Нет Принудительно : Нет Меню 00:00:00.000 : en:Chapter 1 00:08:08.597 : en:Chapter 2 00:17:05.175 : en:Chapter 3 00:27:29.674 : en:Chapter 4 00:36:11.946 : en:Chapter 5 00:44:43.373 : en:Chapter 6 00:53:30.692 : en:Chapter 7 00:58:38.791 : en:Chapter 8 01:06:58.957 : en:Chapter 9 01:19:12.023 : en:Chapter 10 01:27:17.758 : en:Chapter 11 01:34:19.346 : en:Chapter 12
[+] Дополнительная информация• Исходник видео WEB-DL Amazon.
Сборка:

Всего файлов в раздаче: 1 
Гавань.2004.WEB-DL.1080p.mkv10.24 GB

Похожие раздачи по запросу - Гавань
2024-03-20 magnet Зыков Виталий - Мир Бесчисленных Островов 6: Ученик своего учителя. Том 2. Родная гавань (2023) MP3 833.72 MB ↑ 0 ↓ 0

Комментарии


Зарегистрируйтесь чтобы добавить комментарий
Торрент клиент
byTorrent - программа для загрузки торрент-файлов.

Скачать byTorrent.exe (1,5 МБ)

Скачать byTorrent.zip (0,6 МБ)

Поддержи torrent.by
российских рублей
(300 российских рублей это 4$)

Обратная связь rss

End game ©