↑↓torrent.by
Поиск
Логин:  Регистрация
Пароль:

Маска [05x07] (2024) HDTV 1080р от Files-x

download Скачать торрент-файл   magnet Магнитная ссылка Размер: 8.49 GB Добавлен: 2024-04-01 11:00
Пиры будут получены из сети DHT
Последний сидер был замечен 2024-04-15 18:28
Информация о фильме Оригинальное название: Маска Год выхода: 2024 Жанр: ТВ-шоу, музыка Ведущие: Вячеслав Макаров Жюри: Филипп Киркоров, Валерия, Тимур Родригез, Регина Тодоренко, Александр Ревва О фильме: На НТВ — премьера пятого, юбилейного сезона главного шоу страны "Маска". Традиционно одной из главных интриг нового сезона остаются названия масок, под которыми будут скрываться популярные представители музыки, кино, телевидения, спорта и интернета. Главными героями юбилейного сезона станут: Акула, Арлекин, Бабочка, Водяной, Горилла, Енот, Змей Горыныч, Кактус, Кот, Кукуруза, Матрёшка, Мотылёк, Перец и Щенок. Юбилейный сезон будет невероятным — таким, каких еще не было! Поэтому количество регалий, которые есть у участников и которые традиционно раскрывались за несколько недель до премьеры, в этом году останутся в секрете, потому что это помогает зрителям «вычислить» главных героев. В этом году об участниках можно сказать, что они суперпопулярны, в их общей кинематографической копилке – около 130 ролей в кино, сериалах, на театральной сцене и более 10 озвученных мультипликационных героев, а в музыкальной — около 60 позиций, но что это — студийные альбомы или саундтреки — останется в секрете! Разгадать самую охраняемую тайну российского телевидения и найти ответ на главный вопрос последних лет — "Кто скрывается под маской?" — предстоит звездным членам жюри. Ведущим проекта традиционно станет Вячеслав Макаров. Страна: Россия Студия: ВайТ Медиа Продолжительность: 02:52:23 Перевод: Не требуется Файл Кодек: h.264 Качество: HDTV 1080р Видео: MPEG-4 AVC, ~ 6507 Кбит/с, 1920x1080, 25 кадр/с Звук: MP2, 2 ch, 192 Кбит/с
[+] Скриншоты
[+] MediaInfo General ID : 1 (0x1) Complete name : C:Маска.s05.E07.(2024).HDTV.(1080р).by.Nicodem.Files-x (Эфир от 31.03.2024).ts Format : MPEG-TS File size : 8.49 GiB Duration : 2h 52mn Overall bit rate : 7 050 Kbps Maximum Overall bit rate : 35.5 Mbps Video ID : 4113 (0x1011) Menu ID : 1 (0x1) Format : AVC Format/Info : Advanced Video Codec Format profile : High@L4.1 Format settings, CABAC : No Format settings, ReFrames : 3 frames Codec ID : 27 Duration : 2h 52mn Bit rate mode : Variable Bit rate : 6 507 Kbps Maximum bit rate : 40.0 Mbps Width : 1 920 pixels Height : 1 080 pixels Display aspect ratio : 16:9 Frame rate : 25.000 fps Color space : YUV Chroma subsampling : 4:2:0 Bit depth : 8 bits Scan type : Progressive Bits/(Pixel*Frame) : 0.126 Stream size : 7.84 GiB (92%) Language : English Audio ID : 4352 (0x1100) Menu ID : 1 (0x1) Format : MPEG Audio Format version : Version 1 Format profile : Layer 2 Codec ID : 4 Duration : 2h 52mn Bit rate mode : Constant Bit rate : 192 Kbps Channel(s) : 2 channels Sampling rate : 48.0 KHz Compression mode : Lossy Stream size : 237 MiB (3%)
Релиз от:

Всего файлов в раздаче: 1 
Маска.s05.E07.(2024).HDTV.(1080р).by.Nicodem.Files-x (Эфир от 31.03.2024).ts8.49 GB

Похожие раздачи по запросу - Маска
2024-04-22 magnet Маска [05x10] (2024) HDTV 1080р от Files-x 8.78 GB ↑ 0 ↓ 0
2024-04-15 magnet Маска [05x09] (2024) HDTV 1080р от Files-x 6.71 GB ↑ 0 ↓ 0
2024-04-08 magnet Маска [05x08] (2024) HDTV 1080р от Files-x 7.53 GB ↑ 0 ↓ 0
2024-03-18 magnet Маска [05x06] (2024) HDTV 1080р от Files-x 7.37 GB ↑ 0 ↓ 0
2024-03-11 magnet Маска [05x05] (2024) HDTV 1080р от Files-x 8.29 GB ↑ 0 ↓ 0
2024-03-09 magnet Маска [05x04] (2024) HDTV 1080р от Files-x 9.23 GB ↑ 0 ↓ 0
2024-03-04 magnet Маска [05x03] (2024) HDTV 1080р от Files-x 9.40 GB ↑ 0 ↓ 0

Комментарии


Зарегистрируйтесь чтобы добавить комментарий
Торрент клиент
byTorrent - программа для загрузки торрент-файлов.

Скачать byTorrent.exe (1,5 МБ)

Скачать byTorrent.zip (0,6 МБ)

Поддержи torrent.by
российских рублей
(300 российских рублей это 4$)

Обратная связь rss

End game ©