↑↓torrent.by
Поиск
Логин:  Регистрация
Пароль:

Обоюдное согласие [02x01-02 из 06] (2024) WEBRip 1080p

download Скачать торрент-файл   magnet Магнитная ссылка Размер: 2.94 GB Добавлен: 2024-04-01 11:00
Пиры будут получены из сети DHT
Последний сидер был замечен 2024-04-03 03:09
Информация о фильме Название: Обоюдное согласие Год выхода: 2024 Жанр: Драма Режиссёр: Валерия Гай Германика В ролях: Глафира Тарханова, Диана Арбенина, Максим Ползиков, Елена Ханга, Глеб Пускепалис, Артём Анашкин, Иван Габриэль Гаврилов, Владимир Пирожок, Илана Исакжанова, Мария Кончаловская, Валентина Нейморовец, Марина Семяновская, Виталий Алексеев О фильме: Убит успешный предприниматель и многодетный отец Григорий Венишев. Подозрение моментально падает на его жену Марину: все указывает на то, что именно она воткнула нож в мужа. В процессе расследования выясняется, что за идеальным фасадом семьи Венишевых много лет скрывался абьюз — и что покойный Григорий был настоящим чудовищем. Но кто на самом деле его убил? Разбираться в деле будет следователь Анна и правозащитница Ида. Страна: Россия Студия: Медиаслово, МТС Медиа Продолжительность: 2 x ~ 00:35:00 Язык: Русский Премьера в Росcии: 01 апреля 2024 года Цифровой релиз: 01 апреля 2024 года Примечание: Без рекламы Возраст: 18+ Файл Формат: MKV Качество: WEBRip 1080p Видео: MPEG-4 AVC, ~ 6144 Кбит/с, 1920x1080 Звук: AC3, 2 ch, 256 Кбит/с Субтитры: Отсутствуют Семпл
[+] Скриншоты
[+] MIОбщее Уникальный идентификатор : 55742584373850375456964485168018009148 (0x29EFA19918A261D77FF0968E5758AC3C) Полное имя : C:UsersAdminDesktopOboyudnoe.soglasie.S02.2024.WEB-DL.1080pOboyudnoe.soglasie.S02.E01.2024.WEB-DL.1080p.mkv Формат : Matroska Версия формата : Version 4 Размер файла : 1,47 Гбайт Продолжительность : 36 м. 2 с. Режим общего битрейта : Постоянный Общий поток : 5 854 Кбит/сек Название фильма : Oboyudnoe.soglasie.S02.E01.2024.WEB-DL.1080p Дата кодирования : UTC 2024-04-01 03:40:56 Программа кодирования : mkvmerge v83.0 ('Circle Of Friends') 64-bit Библиотека кодирования : libebml v1.4.5 + libmatroska v1.7.1 Attachments : poster.jpg Видео Идентификатор : 1 Формат : AVC Формат/Информация : Advanced Video Codec Профиль формата : Baseline@L4 Настройки формата : 2 Ref Frames Параметр CABAC формата : Нет Параметр RefFrames формата : 2 кадра Параметр GOP формата : M=1, N=25 Идентификатор кодека : V_MPEG4/ISO/AVC Продолжительность : 36 м. 2 с. Вид битрейта : Постоянный Битрейт : 5 595 Кбит/сек Номинальный битрейт : 6 144 Кбит/сек Ширина : 1 920 пикселей Высота : 1 080 пикселей Соотношение сторон : 16:9 Режим частоты кадров : Постоянный Частота кадров : 25,000 кадров/сек Цветовое пространство : YUV Субдискретизация насыщенности : 4:2:0 Битовая глубина : 8 бит Тип развёртки : Прогрессивная Бит/(Пиксели*Кадры) : 0.108 Размер потока : 1,41 Гбайт (96%) Default : Да Forced : Нет Аудио Идентификатор : 2 Формат : AC-3 Формат/Информация : Audio Coding 3 Коммерческое название : Dolby Digital Идентификатор кодека : A_AC3 Продолжительность : 36 м. 1 с. Вид битрейта : Постоянный Битрейт : 256 Кбит/сек Каналы : 2 канала Channel layout : L R Частота : 48,0 КГц Частота кадров : 31,250 кадров/сек (1536 SPF) Метод сжатия : С потерями Размер потока : 66,0 Мбайт (4%) Заголовок : Язык : Russian Service kind : Complete Main Default : Да Forced : Нет

Всего файлов в раздаче: 2 
Oboyudnoe.soglasie.S02.E01.2024.WEB-DL.1080p.mkv1.47 GB
Oboyudnoe.soglasie.S02.E02.2024.WEB-DL.1080p.mkv1.46 GB

Похожие раздачи по запросу - Обоюдное
2024-04-12 magnet Обоюдное согласие [02x01-04 из 06] (2024) WEBRip 720p от ExKinoRay 3.67 GB ↑ 0 ↓ 0
2024-04-12 magnet Обоюдное согласие [02x01-04 из 06] (2024) WEBRip 1080p 5.70 GB ↑ 0 ↓ 0
2024-04-12 magnet Обоюдное согласие [02x01-04 из 06] (2024) WEBRip 1.81 GB ↑ 0 ↓ 0
2024-04-12 magnet Обоюдное согласие [02х01-04 из 06] (2024) WEBRip-AVC от Files-х 1.75 GB ↑ 0 ↓ 0
2024-04-06 magnet Обоюдное согласие [02x01-03 из 06] (2024) WEBRip 720p от ExKinoRay 2.81 GB ↑ 0 ↓ 0
2024-04-06 magnet Обоюдное согласие [02х01-03 из 06] (2024) WEBRip-AVC от Files-х 1.34 GB ↑ 0 ↓ 0
2024-04-05 magnet Обоюдное согласие [02x01-03 из 06] (2024) WEBRip 1080p 4.38 GB ↑ 0 ↓ 0

Комментарии


Зарегистрируйтесь чтобы добавить комментарий
Торрент клиент
byTorrent - программа для загрузки торрент-файлов.

Скачать byTorrent.exe (1,5 МБ)

Скачать byTorrent.zip (0,6 МБ)

Поддержи torrent.by
российских рублей
(300 российских рублей это 4$)

Обратная связь rss

End game ©