↑↓torrent.by
Поиск
Логин:  Регистрация
Пароль:

Обоюдное согласие [02x01-02 из 06] (2024) WEBRip

download Скачать торрент-файл   magnet Магнитная ссылка Размер: 951.02 MB Добавлен: 2024-04-01 11:00
Пиры будут получены из сети DHT
Последний сидер был замечен сегодня в 07:08
Информация о фильме Название: Обоюдное согласие Год выхода: 2024 Жанр: Драма Режиссёр: Валерия Гай Германика В ролях: Глафира Тарханова, Диана Арбенина, Максим Ползиков, Елена Ханга, Глеб Пускепалис, Артём Анашкин, Иван Габриэль Гаврилов, Владимир Пирожок, Илана Исакжанова, Мария Кончаловская, Валентина Нейморовец, Марина Семяновская, Виталий Алексеев О фильме: Убит успешный предприниматель и многодетный отец Григорий Венишев. Подозрение моментально падает на его жену Марину: все указывает на то, что именно она воткнула нож в мужа. В процессе расследования выясняется, что за идеальным фасадом семьи Венишевых много лет скрывался абьюз — и что покойный Григорий был настоящим чудовищем. Но кто на самом деле его убил? Разбираться в деле будет следователь Анна и правозащитница Ида. Страна: Россия Студия: Медиаслово, МТС Медиа Продолжительность: 2 x ~ 00:35:00 Язык: Русский Премьера в Росcии: 01 апреля 2024 года Цифровой релиз: 01 апреля 2024 года Примечание: Без рекламы Возраст: 18+ Файл Формат: AVI Качество: WEBRip Видео: XviD, ~ 1650 Кбит/с, 720x400 Звук: AC3, 2 ch, 192 Кбит/с Субтитры: Отсутствуют Семпл
[+] Скриншоты
[+] MIОбщее Полное имя : C:UsersAdminDesktopOboyudnoe.soglasie.S02.2024.WEB-DLRpOboyudnoe.soglasie.S02.E01.2024.WEB-DLRip.avi Формат : AVI Формат/Информация : Audio Video Interleave Размер файла : 478 Мбайт Продолжительность : 36 м. 2 с. Общий поток : 1 853 Кбит/сек Программа кодирования : Lavf59.16.100 Видео Идентификатор : 0 Формат : MPEG-4 Visual Профиль формата : Advanced Simple@L5 Настройки формата : BVOP1 / Custom Matrix Параметр BVOP формата : 1 Параметр QPel формата : Нет Параметр GMC формата : Без точки перехода Параметр матрицы формата : Выборочная Идентификатор кодека : XVID Идентификатор кодека/Подсказка : XviD Продолжительность : 36 м. 1 с. Битрейт : 1 650 Кбит/сек Ширина : 720 пикселей Высота : 400 пикселей Соотношение сторон : 16:9 Частота кадров : 25,000 кадров/сек Цветовое пространство : YUV Субдискретизация насыщенности : 4:2:0 Битовая глубина : 8 бит Тип развёртки : Прогрессивная Метод сжатия : С потерями Бит/(Пиксели*Кадры) : 0.229 Размер потока : 425 Мбайт (89%) Библиотека кодирования : XviD 69 Аудио Идентификатор : 1 Формат : AC-3 Формат/Информация : Audio Coding 3 Коммерческое название : Dolby Digital Идентификатор кодека : 2000 Продолжительность : 36 м. 2 с. Вид битрейта : Постоянный Битрейт : 192 Кбит/сек Каналы : 2 канала Channel layout : L R Частота : 48,0 КГц Частота кадров : 31,250 кадров/сек (1536 SPF) Битовая глубина : 16 бит Метод сжатия : С потерями Размер потока : 49,5 Мбайт (10%) Выравнивание : Соединение по промежуткам Продолжительность промежутка : 32 мс. (0,80 видеокадр) Service kind : Complete Main

Всего файлов в раздаче: 2 
Oboyudnoe.soglasie.S02.E01.2024.WEB-DLRip.avi477.51 MB
Oboyudnoe.soglasie.S02.E02.2024.WEB-DLRip.avi473.51 MB

Похожие раздачи по запросу - Обоюдное
2024-04-12 magnet Обоюдное согласие [02x01-04 из 06] (2024) WEBRip 720p от ExKinoRay 3.67 GB ↑ 0 ↓ 0
2024-04-12 magnet Обоюдное согласие [02x01-04 из 06] (2024) WEBRip 1080p 5.70 GB ↑ 0 ↓ 0
2024-04-12 magnet Обоюдное согласие [02x01-04 из 06] (2024) WEBRip 1.81 GB ↑ 0 ↓ 0
2024-04-12 magnet Обоюдное согласие [02х01-04 из 06] (2024) WEBRip-AVC от Files-х 1.75 GB ↑ 0 ↓ 0
2024-04-06 magnet Обоюдное согласие [02x01-03 из 06] (2024) WEBRip 720p от ExKinoRay 2.81 GB ↑ 0 ↓ 0
2024-04-06 magnet Обоюдное согласие [02х01-03 из 06] (2024) WEBRip-AVC от Files-х 1.34 GB ↑ 0 ↓ 0
2024-04-05 magnet Обоюдное согласие [02x01-03 из 06] (2024) WEBRip 1080p 4.38 GB ↑ 0 ↓ 0

Комментарии


Зарегистрируйтесь чтобы добавить комментарий
Торрент клиент
byTorrent - программа для загрузки торрент-файлов.

Скачать byTorrent.exe (1,5 МБ)

Скачать byTorrent.zip (0,6 МБ)

Поддержи torrent.by
российских рублей
(300 российских рублей это 4$)

Обратная связь rss

End game ©