↑↓torrent.by
Поиск
Логин:  Регистрация
Пароль:

Воздух (2023) WEB-DLRip-AVC от MegaPeer

download Скачать торрент-файл   magnet Магнитная ссылка Размер: 2.17 GB Добавлен: 2024-04-01 11:00
Пиры будут получены из сети DHT
Последний сидер был замечен 2024-04-07 19:03
Информация о фильме Название: Воздух Год выхода: 2023 Жанр: Военный, драма, история Режиссер: Алексей Герман мл. В ролях: Анастасия Талызина, Аглая Тарасова, Кристина Лапшина, Сергей Безруков, Елена Лядова, Олег Гринченко, Антон Шагин, Кристина Исайкина-Бергер, Игорь Митюшкин, Игорь Коровин О фильме: Великая Отечественная война. В СССР идут тяжелые бои, немецкая армия наступает. В смешанный авиационный полк прибывает подразделение летчиц. Все они — юные, необстрелянные и сперва не совсем понимают, что такое война. Девушкам приходится трудно в мужском мире, но они день за днем в череде воздушных схваток доказывают, что они не хуже мужчин. Страна: Россия Студия: АМЕДИА, Первый канал, Метрафильмс Продолжительность: 02:31:25 Перевод: Не требуется | Кинопоиск HD Файл Качество: WEB-DLRip-AVC Формат: MKV Кодек: MPEG-4 AVC Видео: 810x338 (2.40:1), 25 fps, MPEG-4 AVC ~ 1609 Kbps avg, 0.235 bit/pixel Аудио: AC3, 48 kHz, 6 ch, ~448.00 kbps avg | русский | Субтитры: Отсутствуют
[+] Инфо-файлОбщее Уникальный идентификатор : 179862425192281031686157514649957190142 (0x87503E38D6C023E889341761D1F649FE) Полное имя : Vozdukh.2023.2023.RUS.WEBDL.DD5.1.x264.MegaPeer.mkv Формат : Matroska Версия формата : Version 4 Размер файла : 2,17 Гбайт Продолжительность : 2 ч. 31 мин. Общий битрейт : 2 054 Кбит/сек Частота кадров : 25,000 кадров/сек Название фильма : Воздух (2023) от stillet@MegaPeer Дата кодирования : 2024-04-01 04:36:09 UTC Программа кодирования : mkvmerge v15.0.0 ('Duel with the Devil') 64-bit Библиотека кодирования : libebml v1.3.5 + libmatroska v1.4.5 Обложка : Yes Attachments : cover.jpg Видео Идентификатор : 1 Формат : AVC Формат/Информация : Advanced Video Codec Профиль формата : High@L4.1 Настройки формата : CABAC / 12 Ref Frames Параметр CABAC формата : Да Параметр RefFrames формата : 12 кадров Идентификатор кодека : V_MPEG4/ISO/AVC Продолжительность : 2 ч. 31 мин. Битрейт : 1 609 Кбит/сек Ширина : 810 пикселей Высота : 338 пикселей Соотношение сторон дисплея : 2,40:1 Режим частоты кадров : Постоянный Частота кадров : 25,000 кадров/сек Цветовое пространство : YUV Цветовая субдискретизация : 4:2:0 Битовая глубина : 8 бит Тип развёртки : Прогрессивная Бит/(Пиксели*Кадры) : 0.235 Размер потока : 1,70 Гбайт (78%) Библиотека кодирования : x264 core 164 r3156+57M stillet t_mod_New Параметры библиотеки кодирования : cabac=1 / ref=12 / deblock=1:-3:-3 / analyse=0x3:0x113 / me=umh / subme=10 / psy=1 / fade_compensate=0.00 / psy_rd=1.03:0.02 / mixed_ref=1 / me_range=32 / chroma_me=1 / trellis=2 / 8x8dct=1 / cqm=0 / deadzone=21,11 / fast_pskip=0 / chroma_qp_offset=-3 / threads=11 / lookahead_threads=2 / sliced_threads=0 / nr=0 / decimate=0 / interlaced=0 / bluray_compat=0 / constrained_intra=0 / fgo=0 / bframes=10 / b_pyramid=2 / b_adapt=2 / b_bias=0 / direct=3 / weightb=1 / open_gop=0 / weightp=2 / keyint=250 / keyint_min=25 / scenecut=40 / intra_refresh=0 / rc_lookahead=40 / rc=2pass / mbtree=0 / bitrate=1609 / ratetol=1.0 / qcomp=0.60 / qpmin=0:0:0 / qpmax=69:69:69 / qpstep=4 / cplxblur=20.0 / qblur=0.5 / vbv_maxrate=50000 / vbv_bufsize=62500 / nal_hrd=none / filler=0 / ip_ratio=1.40 / pb_ratio=1.30 / aq=1:1.10 / aq-sensitivity=10.00 / aq-factor=1.00:1.00:1.00 / aq2=0 / aq3=0 Язык : Русский По умолчанию : Да Принудительно : Нет Аудио Идентификатор : 2 Формат : AC-3 Формат/Информация : Audio Coding 3 Коммерческое название : Dolby Digital Идентификатор кодека : A_AC3 Продолжительность : 2 ч. 31 мин. Вид битрейта : Постоянный Битрейт : 448 Кбит/сек Канал(-ы) : 6 каналов Расположение каналов : L R C LFE Ls Rs Частота дискретизации : 48,0 КГц Частота кадров : 31,250 кадров/сек (1536 SPF) Метод сжатия : С потерями Размер потока : 485 Мбайт (22%) Заголовок : Кинопоиск HD Язык : Русский Вид сервиса : Complete Main По умолчанию : Да Принудительно : Нет
Релиз:

Всего файлов в раздаче: 1 
Vozdukh.2023.2023.RUS.WEBDL.DD5.1.x264.MegaPeer.mkv2.17 GB

Похожие раздачи по запросу - Воздух
2024-04-06 magnet Воздух (2023) WEB-DLRip-AVC от DoMiNo 745.53 MB ↑ 0 ↓ 1
2024-04-02 magnet Воздух (2023) WEB-DLRip от Generalfilm | КПК 575.90 MB ↑ 0 ↓ 0
2024-04-01 magnet Воздух [2023, военный, драма, история, WEB-DLRip-AVC] 2.18 GB ↑ 2 ↓ 0
2024-04-01 magnet Воздух (2023) WEB-DL 720p от ExKinoRay | КиноПоиск HD 6.11 GB ↑ 0 ↓ 0
2024-04-01 magnet Воздух (2023) WEB-DLRip от MegaPeer 1.46 GB ↑ 0 ↓ 1
2024-04-01 magnet Воздух (2023) WEB-DL 720p 4.36 GB ↑ 1 ↓ 0
2024-04-01 magnet Воздух (2023) WEB-DLRip от ELEKTRI4KA | КиноПоиск HD 2.19 GB ↑ 0 ↓ 0

Комментарии


Зарегистрируйтесь чтобы добавить комментарий
Торрент клиент
byTorrent - программа для загрузки торрент-файлов.

Скачать byTorrent.exe (1,5 МБ)

Скачать byTorrent.zip (0,6 МБ)

Поддержи torrent.by
российских рублей
(300 российских рублей это 4$)

Обратная связь rss

End game ©