↑↓torrent.by
Поиск
Логин:  Регистрация
Пароль:

Игра / The Game (1997) BDRip 720p от New-Team | D

download Скачать торрент-файл   magnet Магнитная ссылка Размер: 4.37 GB Добавлен: 2024-04-01 17:00
Пиры будут получены из сети DHT
Последний сидер был замечен 2024-04-04 15:28
«Вы готовы играть?» Страна: США Производство: A&B Producoes, Lda., PolyGram Filmed Entertainment, Propaganda Films Жанр: фантастика, боевик, приключения Год выпуска: 1997 Продолжительность: 02:08:43 Перевод: Профессиональный (полное дублирование) DVD-Group, Профессиональный (двухголосый закадровый) Ren TV, Aвторский (одноголосый закадровый) Живов Оригинальная аудиодорожка: английский Cубтитры: русский Режиссер: Дэвид Финчер / David Fincher В ролях: Майкл Дуглас, Шон Пенн, Дебора Кара Ангер, Джеймс Ребхорн, Питер Донат, Кэррол Бейкер, Анна Катарина, Армин Мюллер-Шталь, Чарльз Мартине, Юдзи Окумото... Подробнее об актерах Роли дублировали: Владимир Еремин, Всеволод Кузнецов, Ольга Плетнёва, Владимир Антоник, Рогволд Суховерко... Описание: Николас Ван Ортон — само воплощение успеха. Он преуспевает, он невозмутим и спокоен, привык держать любую ситуацию под контролем. На день рождения Николас получает необычный подарок — билет для участия в «Игре». Ему обещают, что игра вернет яркие чувства, позволит ощутить вкус и остроту жизни. Вступив в игру, Николас начинает осознавать, что это игра всерьез, игра не на жизнь, а на смерть. Исходник: BDRemux 1080p Тип релиза: BDRip 720p Контейнер: MKV Видео: 1280x532 (2,40:1), 23,976 кадра/сек, x264 core 138 r2356 ~ 3325 кбит/сек, 0.204 бит/пиксель Аудио: 48 кГц, Dolby Digital AC3 5.1, 384 кбит/сек DUB Аудио: 48 кГц, Dolby Digital AC3 5.1, 384 кбит/сек DVO Аудио: 48 кГц, Dolby Digital AC3 5.1, 384 кбит/сек AVO Живов Аудио: 48 кГц, Dolby Digital AC3 5.1, 384 кбит/сек Английский Субтитры: SoftSub (srt) Оригинальная навигация по главам: есть Раздача от:
[+] MediaInfo Общее Полное имя : Игра.1997.BDRip720p__by_AVP_Studio.mkv Формат : Matroska Версия формата : Version 4 / Version 2 Размер файла : 4,38 Гбайт Продолжительность : 2 ч. 8 м. Общий поток : 4863 Кбит/сек Название фильма : Igra.1997.BDRip720p__by_AVP_Studio Дата кодирования : UTC 2014-06-10 07:49:12 Программа кодирования : mkvmerge v6.9.1 ('Blue Panther') 64bit built on Apr 18 2014 18:23:38 Библиотека кодирования : libebml v1.3.0 + libmatroska v1.4.1 Видео Идентификатор : 1 Формат : AVC Формат/Информация : Advanced Video Codec Профиль формата : High@L4.1 Параметр CABAC формата : Да Параметр ReFrames формата : 6 кадров Идентификатор кодека : V_MPEG4/ISO/AVC Продолжительность : 2 ч. 8 м. Битрейт : 3325 Кбит/сек Ширина : 1280 пикселей Высота : 532 пикселя Соотношение сторон : 2,40:1 Режим частоты кадров : Постоянный Частота кадров : 23,976 кадра/сек Цветовое пространство : YUV Субдискретизация насыщенности : 4:2:0 Битовая глубина : 8 бит Тип развёртки : Прогрессивная Бит/(Пиксели*Кадры) : 0.204 Размер потока : 2,91 Гбайт (66%) Заголовок : Источник BDRemux Библиотека кодирования : x264 core 138 r2356 a1d3d17 Настройки программы : cabac=1 / ref=6 / deblock=1:-3:-3 / analyse=0x3:0x113 / me=umh / subme=10 / psy=1 / psy_rd=1.00:0.05 / mixed_ref=1 / me_range=32 / chroma_me=1 / trellis=2 / 8x8dct=1 / cqm=0 / deadzone=21,11 / fast_pskip=0 / chroma_qp_offset=-3 / threads=6 / lookahead_threads=1 / sliced_threads=0 / nr=0 / decimate=0 / interlaced=0 / bluray_compat=0 / constrained_intra=0 / bframes=8 / b_pyramid=2 / b_adapt=2 / b_bias=0 / direct=3 / weightb=1 / open_gop=0 / weightp=2 / keyint=240 / keyint_min=24 / scenecut=40 / intra_refresh=0 / rc_lookahead=40 / rc=2pass / mbtree=1 / bitrate=3325 / ratetol=1.0 / qcomp=0.60 / qpmin=10 / qpmax=51 / qpstep=4 / cplxblur=20.0 / qblur=0.5 / vbv_maxrate=50000 / vbv_bufsize=50000 / nal_hrd=none / ip_ratio=1.40 / aq=1:0.80 Язык : English Default : Да Forced : Нет Аудио #1 Идентификатор : 2 Формат : AC-3 Формат/Информация : Audio Coding 3 Расширение режима : CM (complete main) Параметр Endianness формата : Big Идентификатор кодека : A_AC3 Продолжительность : 2 ч. 8 м. Вид битрейта : Постоянный Битрейт : 384 Кбит/сек Каналы : 6 каналов Расположение каналов : Front: L C R, Side: L R, LFE Частота : 48,0 КГц Битовая глубина : 16 бит Метод сжатия : С потерями Размер потока : 354 Мбайт (8%) Заголовок : Источник BDRemux Dolby Digital 5,1 384kb DUB Язык : Russian Default : Да Forced : Нет Аудио #2 Идентификатор : 3 Формат : AC-3 Формат/Информация : Audio Coding 3 Расширение режима : CM (complete main) Параметр Endianness формата : Big Идентификатор кодека : A_AC3 Продолжительность : 2 ч. 8 м. Вид битрейта : Постоянный Битрейт : 384 Кбит/сек Каналы : 6 каналов Расположение каналов : Front: L C R, Side: L R, LFE Частота : 48,0 КГц Битовая глубина : 16 бит Метод сжатия : С потерями Размер потока : 354 Мбайт (8%) Заголовок : Источник BDRemux Dolby Digital 5,1 384kb DVO Язык : Russian Default : Нет Forced : Нет Аудио #3 Идентификатор : 4 Формат : AC-3 Формат/Информация : Audio Coding 3 Расширение режима : CM (complete main) Параметр Endianness формата : Big Идентификатор кодека : A_AC3 Продолжительность : 2 ч. 8 м. Вид битрейта : Постоянный Битрейт : 384 Кбит/сек Каналы : 6 каналов Расположение каналов : Front: L C R, Side: L R, LFE Частота : 48,0 КГц Битовая глубина : 16 бит Метод сжатия : С потерями Размер потока : 354 Мбайт (8%) Заголовок : Источник BDRemux Dolby Digital 5,1 384kb Живов Язык : Russian Default : Нет Forced : Нет Аудио #4 Идентификатор : 5 Формат : AC-3 Формат/Информация : Audio Coding 3 Расширение режима : CM (complete main) Параметр Endianness формата : Big Идентификатор кодека : A_AC3 Продолжительность : 2 ч. 8 м. Вид битрейта : Постоянный Битрейт : 384 Кбит/сек Каналы : 6 каналов Расположение каналов : Front: L C R, Side: L R, LFE Частота : 48,0 КГц Битовая глубина : 16 бит Метод сжатия : С потерями Размер потока : 354 Мбайт (8%) Заголовок : Источник BDRemux Dolby Digital 5,1 384kb Язык : English Default : Нет Forced : Нет Текст #1 Идентификатор : 6 Формат : UTF-8 Идентификатор кодека : S_TEXT/UTF8 Идентификатор кодека/Информация : UTF-8 Plain Text Заголовок : Источник BDRemux SoftSub (srt) Язык : Russian Default : Нет Forced : Нет Текст #2 Идентификатор : 7 Формат : UTF-8 Идентификатор кодека : S_TEXT/UTF8 Идентификатор кодека/Информация : UTF-8 Plain Text Заголовок : Источник BDRemux SoftSub (srt) Язык : English Default : Нет Forced : Нет Меню 00:00:00.000 : en:Opening titles 00:01:06.275 : en:Birthday party 00:02:52.422 : en:“Happy birthday, sir” 00:05:51.851 : en:Profound life experience 00:09:27.734 : en:Forty-eight 00:13:41.738 : en:Consumer Recreation Services 00:17:54.365 : en:“Confused . . . risky . . . bloody . . . whoops” 00:20:52.543 : en:John 9:25 00:24:49.405 : en:“This is your Game, and welcome to it” 00:30:47.846 : en:Helping hand 00:34:00.538 : en:“Don’t let her get away” 00:43:13.508 : en:Czar Nicholas 00:51:09.984 : en:Guy in the gray flannel suit 00:53:55.816 : en:Hotel Nikko 00:59:11.339 : en:Toyed with by depraved children 01:04:56.392 : en:Nicholas Van Cocksucker 01:08:06.541 : en:Human piñata 01:12:31.556 : en:California Regal Sedans 01:15:57.803 : en:Motive 01:18:55.397 : en:Cable Repair Specialists 01:26:49.454 : en:Blue 2/9690D 01:33:56.422 : en:Entombed 01:37:29.927 : en:“Can I have your attention, please?” 01:42:23.095 : en:Trust Taggarene 01:45:14.016 : en:“I love your work” 01:48:25.791 : en:Pulling back the curtain 01:52:38.293 : en:“This is the Game” 01:59:28.119 : en:Cordially invited 02:03:44.250 : en:End credits
[+] Скриншоты

Всего файлов в раздаче: 1 
Игра.1997.BDRip720p_[New-team]_by_AVP_Studio.mkv4.37 GB

Похожие раздачи по запросу - Игра
Сегодня magnet Прекрасная игра / The Beautiful Game (2024) WEB-DL 1080p от New-Team | L | Soundmasters 5.22 GB ↑ 0 ↓ 3
2024-04-07 magnet КВН-2024. Высшая лига. 1/8 финала. Игра вторая [эфир от 06.04] (2024) WEBRip 1080p 1К9.58 GB ↑ 0 ↓ 0
2024-04-07 magnet КВН-2024. Высшая лига. 1/8 финала. Игра вторая [эфир от 06.04] (2024) SATRip 1.36 GB ↑ 0 ↓ 0
2024-04-02 magnet Игра / The Game (1997) BDRip от New-Team | D 1.09 GB ↑ 0 ↓ 0
2024-04-02 magnet Игра / The Game (1997) BDRip-AVC от New-Team | D 2.19 GB ↑ 0 ↓ 0
2024-04-01 magnet Игра / The Game (1997) HybridRip 720p от DoMiNo | D, P | Open Matte 7.78 GB ↑ 1 ↓ 0
2024-03-28 magnet Честная игра / Fair Play (2023) WEB-DLRip от toxics & селезень | D, P 2.18 GB ↑ 0 ↓ 1

Комментарии


Зарегистрируйтесь чтобы добавить комментарий
Торрент клиент
byTorrent - программа для загрузки торрент-файлов.

Скачать byTorrent.exe (1,5 МБ)

Скачать byTorrent.zip (0,6 МБ)

Поддержи torrent.by
российских рублей
(300 российских рублей это 4$)

Обратная связь rss

End game ©