↑↓torrent.by
Поиск
Логин:  Регистрация
Пароль:

300 спартанцев / 300 (2006) HybridRip-AVC от DoMiNo | D | Open Matte

download Скачать торрент-файл   magnet Магнитная ссылка Размер: 4.15 GB Раздают: 0 Качают: 1 Добавлен: 2024-04-01 17:00
Пиры будут получены из сети DHT
Последний сидер был замечен сегодня в 21:35
Информация о фильме Название: 300 спартанцев Оригинальное название: 300 Год выхода: 2006 Жанр: Военный, История, Боевик, Драма Режиссер: Зак Снайдер В ролях: Джерард Батлер, Лена Хеди, Доминик Уэст, Дэвид Венхам, Винсент Риган, Майкл Фассбендер, Том Уисдом О фильме: События картины повествуют о кровопролитной битве при Фермопилах в 480 году до н.э., в которой триста отважных спартанцев во главе со своим царем Леонидом преградили путь многотысячной армии персидского царя Ксеркса.Несмотря на численный перевес персов, спартанцы продолжали упорную оборону, проявив мужество и отвагу. Их бесстрашие и героизм вдохновили всю Грецию на объединение против непобедимого врага, переломив тем самым ход Греко-персидских войн… Страна: США Продолжительность: 01:56:32 Перевод: Профессиональный (полное дублирование) Субтитры: Русские, Украинские, Английские Файл Кодек: x264 Качество: HybridRip-AVC | Open Matte Формат: Matroska Видео: High@L4.1; 1024x576 (16:9); ~4546 Kbps; 23,976 fps; 0.321 bpp Аудио: 48 kHz, AC3, 3/2 (L,C,R,l,r) + LFE ch, ~448.00 kbps Формат субтитров: softsub (SRT) ***Релиз от: -=DoMiNo=-
[+] M/IGeneral Complete name : 300 спартанцев.(2006).HybridRIP-AVC.Open Matte.D..mkv Format : Matroska Format version : Version 4 / Version 2 File size : 4.15 GiB Duration : 1 h 56 min Overall bit rate : 5 095 kb/s Movie name : 300 спартанцев Deion : Парламентер всемогущего царя Ксеркса оскорбил гордый народ Спарты и царя Леонида, предложив им без боя сдаться Персидской армии. Посол был брошен в пропасть, а две армии столкнулись в кровопролитной битве при Фермопилах. Это случилось в 480 году до н.э.. Триста отважных спартанцев во главе со своим царем преградили путь многотысячной армии Ксеркса (Родриго Санторо). Несмотря на численный перевес персов, спартанские воины держали оборону, проявив нечеловеческое мужество и отвагу. Cover : Yes Attachments : cover.jpg COMPOSER : Тайлер Бейтс COUNTRY : США DATE : 2007 DIRECTOR : Зак Снайдер GENRE : фэнтези, боевик IMDB_RATING : 7.70 ITUNEXTC : mpaa|R|400| ORIGINAL_TITLE : 300 RATING : 7.629 WRITER : Зак Снайдер, Курт Джонстад, Майкл Гордон, Фрэнк Миллер, Линн Варлей Video ID : 1 Format : AVC Format/Info : Advanced Video Codec Format profile : High@L4.1 Format settings : CABAC / 11 Ref Frames Format settings, CABAC : Yes Format settings, ReFrames : 11 frames Codec ID : V_MPEG4/ISO/AVC Duration : 1 h 56 min Bit rate : 4 546 kb/s Width : 1 024 pixels Height : 576 pixels Display aspect ratio : 16:9 Frame rate mode : Constant Frame rate : 23.976 (24000/1001) FPS Color space : YUV Chroma subsampling : 4:2:0 Bit depth : 8 bits Scan type : Progressive Bits/(Pixel*Frame) : 0.321 Stream size : 3.70 GiB (89%) Title : HybridRIP_AVC_-=DoMiNo=-_Open Matte Writing library : x264 core 155 r2893M b00bcaf Encoding settings : cabac=1 / ref=11 / deblock=1:-3:-3 / analyse=0x3:0x133 / me=umh / subme=11 / psy=1 / psy_rd=1.00:0.10 / mixed_ref=1 / me_range=32 / chroma_me=1 / trellis=2 / 8x8dct=1 / cqm=0 / deadzone=21,11 / fast_pskip=1 / chroma_qp_offset=-3 / threads=6 / lookahead_threads=1 / sliced_threads=0 / nr=0 / decimate=1 / interlaced=0 / bluray_compat=0 / constrained_intra=0 / bframes=12 / b_pyramid=2 / b_adapt=2 / b_bias=0 / direct=3 / weightb=1 / open_gop=0 / weightp=2 / keyint=240 / keyint_min=24 / scenecut=40 / intra_refresh=0 / rc_lookahead=60 / rc=crf / mbtree=1 / crf=19.0 / qcomp=0.60 / qpmin=0 / qpmax=69 / qpstep=4 / ip_ratio=1.40 / aq=1:1.00 Language : English Default : Yes Forced : No Color range : Limited Color primaries : BT.709 Transfer characteristics : BT.709 Matrix coefficients : BT.709 Audio ID : 2 Format : AC-3 Format/Info : Audio Coding 3 Codec ID : A_AC3 Duration : 1 h 56 min Bit rate mode : Constant Bit rate : 448 kb/s Channel(s) : 6 channels Channel positions : Front: L C R, Side: L R, LFE Sampling rate : 48.0 kHz Frame rate : 31.250 FPS (1536 SPF) Bit depth : 16 bits Compression mode : Lossy Stream size : 374 MiB (9%) Title : Dub Language : Russian Service kind : Complete Main Default : Yes Forced : No Text #1 ID : 3 Format : UTF-8 Codec ID : S_TEXT/UTF8 Codec ID/Info : UTF-8 Plain Text Language : Russian Default : Yes Forced : No Text #2 ID : 4 Format : UTF-8 Codec ID : S_TEXT/UTF8 Codec ID/Info : UTF-8 Plain Text Language : Ukrainian Default : No Forced : No Text #3 ID : 5 Format : UTF-8 Codec ID : S_TEXT/UTF8 Codec ID/Info : UTF-8 Plain Text Language : English Default : No Forced : No Text #4 ID : 6 Format : UTF-8 Codec ID : S_TEXT/UTF8 Codec ID/Info : UTF-8 Plain Text Title : SDH Language : English Default : No Forced : No Menu 00:00:00.000 : :Spartan Education 00:05:16.983 : :Messenger From Persia 00:10:23.289 : :Sparta's Reply 00:13:16.796 : :The Ephors 00:16:52.177 : :The Oracle 00:19:44.349 : :What Should a Free Man Do? 00:22:28.347 : :With or on Your Shield 00:27:03.622 : :More Soldiers Than You 00:29:16.254 : :Hunters of Men's Souls 00:33:17.829 : :Glorious Rain 00:35:06.771 : :Fraction of the Monster 00:37:49.433 : :Wall of the Dead 00:40:46.277 : :Ephialtes' Request 00:44:10.314 : :Hot Gates Battle 00:49:17.287 : :Today No Spartan Dies 00:52:46.329 : :Make Theron Your Ally 00:55:33.663 : :Meeting Xerxes 01:01:40.863 : :Immortals Put to the Test 01:05:20.750 : :Uber Immortal's Fall 01:08:42.952 : :Numbers Count for Nothing 01:12:43.192 : :Blood-Drunk 01:15:50.379 : :Betrayer's Bargain 01:18:38.380 : :Queen's Bargain 01:22:20.936 : :Prepare for Glory 01:26:43.531 : :Tell Them Our Story 01:29:11.512 : :Trickster in True Form 01:33:59.216 : :Victory in Surrender 01:38:54.595 : :Fallen Heroes 01:43:26.200 : :Go Tell the Spartans 01:49:03.537 : :End Credits
[+] Скриншоты

Всего файлов в раздаче: 1 
300 спартанцев.(2006).HybridRIP-AVC.Open Matte.D.[-=DoMiNo=-].mkv4.15 GB

Похожие раздачи по запросу - 300
2024-04-14 magnet Смешанные единоборства. ММА. UFC 300: Pereira vs. Hill. Full Event [13.04] (2024) HDTVRip 720р | 50 fps 10.54 GB ↑ 0 ↓ 0
2024-03-13 magnet Various Artists - 300 знаменитых хитов ВИА СССР, ч.2 (1970-1989) FLAC 2.36 GB ↑ 0 ↓ 0
2024-03-13 magnet Various Artists - 300 знаменитых хитов ВИА СССР, ч.3 (1970-1989) FLAC 2.59 GB ↑ 0 ↓ 0
2024-03-13 magnet Various Artists - 300 знаменитых хитов ВИА СССР, ч.1 (1970-1989) FLAC 2.02 GB ↑ 0 ↓ 0

Комментарии


Зарегистрируйтесь чтобы добавить комментарий
Торрент клиент
byTorrent - программа для загрузки торрент-файлов.

Скачать byTorrent.exe (1,5 МБ)

Скачать byTorrent.zip (0,6 МБ)

Поддержи torrent.by
российских рублей
(300 российских рублей это 4$)

Обратная связь rss

End game ©