↑↓torrent.by
Поиск
Логин:  Регистрация
Пароль:

Балерина / Ballerina (2023) WEB-DL 2160p | 4K | SDR | D | TVShows

download Скачать торрент-файл   magnet Магнитная ссылка Размер: 12.35 GB Раздают: 0 Качают: 1 Добавлен: 2024-04-01 17:00
Пиры будут получены из сети DHT
Последний сидер был замечен 2024-04-08 03:53
Информация о фильме Название: Балерина Оригинальное название: Ballerina Год выхода: 2023 Жанр: Боевик, криминал Режиссер: Ли Чхун-хён В ролях: Чон Джон-со, Ким Джи-хун, Пак Ю-рим, Щин Сэ-хви, Пак Хён-су, Ким Му-ёль, Чан Юн-джу, Ким Ён-ок, Чу Хён, Пак Кын-джон О фильме: Бывшая телохранительница Чан Ок Чжу выслеживает банду секс-торговцев под предводительством Чхве Про, чтобы отомстить за смерть своей подруги Чхве Мин Хи. «Балерина» — остросюжетный боевик о девушке, которая мстит мафии за гибель своей подруги. Страна: Южная Корея Студия: Climax Studio, Netflix Продолжительность: 01:33:47 Перевод: Дублированный (неофициальный) | TVShows Файл Формат: MKV Качество: WEB-DL 2160p Видео: MPEG-H HEVC, 3840x2160, 23.976 fps, 17.6 Mbps Аудио 1: AC3, 5.1 ch, 48.0 kHz, 448 kbps | DUB, TVShows Аудио 2: E-AC3 JOC, 5.1 ch, 48.0 kHz, 768 kbps | Original Субтитры: Русские (Forced, Full), украинские, английские, корейские
[+] Скриншоты
[+] Инфо-файлИсточник: Ballerina.2023.2160p.NF.WEB-DL.DDP5.1.Atmos.H.265-HHWEB General Unique ID : 101813906684896016071288223663400709098 (0x4C98A52976ED15F7E387439E47986BEA) Complete name : Балерина.2023.WEB-DL.2160p.SDR.mkv Format : Matroska Format version : Version 4 File size : 12.3 GiB Duration : 1 h 35 min Overall bit rate : 18.5 Mb/s Frame rate : 23.976 FPS Encoded date : 2023-10-22 17:40:36 UTC Writing application : mkvmerge v79.0 ('Funeral Pyres') 64-bit Writing library : libebml v1.4.4 + libmatroska v1.7.1 Attachments : poster.jpg Video ID : 1 Format : HEVC Format/Info : High Efficiency Video Coding Format profile : Main 10@L5@Main Codec ID : V_MPEGH/ISO/HEVC Duration : 1 h 33 min Bit rate : 17.6 Mb/s Width : 3 840 pixels Height : 2 160 pixels Display aspect ratio : 16:9 Frame rate mode : Constant Frame rate : 23.976 (24000/1001) FPS Color space : YUV Chroma subsampling : 4:2:0 Bit depth : 10 bits Bits/(Pixel*Frame) : 0.089 Stream size : 11.6 GiB (94%) Default : Yes Forced : No Color range : Limited Color primaries : BT.709 Transfer characteristics : BT.709 Matrix coefficients : BT.709 Audio #1 ID : 2 Format : AC-3 Format/Info : Audio Coding 3 Commercial name : Dolby Digital Codec ID : A_AC3 Duration : 1 h 35 min Bit rate mode : Constant Bit rate : 448 kb/s Channel(s) : 6 channels Channel layout : L R C LFE Ls Rs Sampling rate : 48.0 kHz Frame rate : 31.250 FPS (1536 SPF) Compression mode : Lossy Stream size : 306 MiB (2%) Title : Dub, TVShows Language : Russian Service kind : Complete Main Default : Yes Forced : No Audio #2 ID : 3 Format : E-AC-3 JOC Format/Info : Enhanced AC-3 with Joint Object Coding Commercial name : Dolby Digital Plus with Dolby Atmos Codec ID : A_EAC3 Duration : 1 h 32 min Bit rate mode : Constant Bit rate : 768 kb/s Channel(s) : 6 channels Channel layout : L R C LFE Ls Rs Sampling rate : 48.0 kHz Frame rate : 31.250 FPS (1536 SPF) Compression mode : Lossy Stream size : 507 MiB (4%) Language : Korean Service kind : Complete Main Default : No Forced : No Complexity index : 16 Number of dynamic objects : 15 Bed channel count : 1 channel Bed channel configuration : LFE Text #1 ID : 4 Format : UTF-8 Codec ID : S_TEXT/UTF8 Codec ID/Info : UTF-8 Plain Text Duration : 1 h 15 min Bit rate : 0 b/s Frame rate : 0.001 FPS Count of elements : 5 Stream size : 193 Bytes (0%) Title : forced Language : Russian Default : Yes Forced : No Text #2 ID : 5 Format : UTF-8 Codec ID : S_TEXT/UTF8 Codec ID/Info : UTF-8 Plain Text Duration : 1 h 31 min Bit rate : 40 b/s Frame rate : 0.118 FPS Count of elements : 644 Stream size : 27.2 KiB (0%) Title : full Language : Russian Default : No Forced : No Text #3 ID : 6 Format : UTF-8 Codec ID : S_TEXT/UTF8 Codec ID/Info : UTF-8 Plain Text Duration : 1 h 31 min Bit rate : 41 b/s Frame rate : 0.118 FPS Count of elements : 647 Stream size : 28.0 KiB (0%) Language : Ukrainian Default : No Forced : No Text #4 ID : 7 Format : UTF-8 Codec ID : S_TEXT/UTF8 Codec ID/Info : UTF-8 Plain Text Duration : 1 h 27 min Bit rate : 28 b/s Frame rate : 0.129 FPS Count of elements : 674 Stream size : 18.2 KiB (0%) Language : English Default : No Forced : No Text #5 ID : 8 Format : UTF-8 Codec ID : S_TEXT/UTF8 Codec ID/Info : UTF-8 Plain Text Duration : 1 h 24 min Bit rate : 0 b/s Frame rate : 0.002 FPS Count of elements : 9 Stream size : 138 Bytes (0%) Title : forced Language : Korean Default : No Forced : No Text #6 ID : 9 Format : UTF-8 Codec ID : S_TEXT/UTF8 Codec ID/Info : UTF-8 Plain Text Duration : 1 h 29 min Bit rate : 62 b/s Frame rate : 0.253 FPS Count of elements : 1356 Stream size : 41.0 KiB (0%) Title : SDH Language : Korean Default : No Forced : No

Всего файлов в раздаче: 1 
Балерина.2023.WEB-DL.2160p.SDR.mkv12.35 GB

Похожие раздачи по запросу - Балерина
2023-10-22 magnet Балерина / Ballerina (2023) WEB-DLRip 720p от ExKinoRay | D | TVShows 2.49 GB ↑ 0 ↓ 0

Комментарии


Зарегистрируйтесь чтобы добавить комментарий
Торрент клиент
byTorrent - программа для загрузки торрент-файлов.

Скачать byTorrent.exe (1,5 МБ)

Скачать byTorrent.zip (0,6 МБ)

Поддержи torrent.by
российских рублей
(300 российских рублей это 4$)

Обратная связь rss

End game ©