↑↓torrent.by
Поиск
Логин:  Регистрация
Пароль:

Игра / The Game (1997) HybridRip 720p от DoMiNo | D, P | Open Matte

download Скачать торрент-файл   magnet Магнитная ссылка Размер: 7.78 GB Добавлен: 2024-04-01 17:00
Пиры будут получены из сети DHT
Последний сидер был замечен вчера в 23:36
Информация о фильме Название: Игра Оригинальное название: The Game Год выхода: 1997 Жанр: Триллер, драма, детектив, приключения Режиссер: Дэвид Финчер В ролях: Майкл Дуглас, Шон Пенн, Дебора Кара Ангер, Джеймс Ребхорн, Питер Донат, Кэррол Бейкер, Анна Катарина, Армин Мюллер-Шталь, Чарльз Мартине, Скотт Хантер МакГуайр О фильме: Николас Ван Ортон — само воплощение успеха. Он преуспевает, он невозмутим и спокоен, привык держать любую ситуацию под контролем. На день рождения Николас получает необычный подарок — билет для участия в «Игре». Ему обещают, что игра вернет яркие чувства, позволит ощутить вкус и остроту жизни. Вступив в игру, Николас начинает осознавать, что это игра всерьез, игра не на жизнь, а на смерть. Страна: США Студия: A&B Producoes, Lda., PolyGram Filmed Entertainment, Propaganda Films. Продолжительность: 02:08:38 Перевод: Дублированный, профессиональный, (многоголосый, закадровый). Субтитры: Русские (Full x2), английские (Full, SDH) Файл Формат: Matroska Качество: HybridRip | Open Matte Видео: AVC/H.264, 1280x720 (16:9), ~7605 Kbps, 23.976 fps Аудио 01: AC3, 6 ch, 384 kbps - Русский (DUB, DVD-Group / Позитив-Мультимедиа) Аудио 02: AC3, 6 ch, 448 kbps - Русский (MVO, Позитив-Мультимедиа) Аудио 03: AC3, 2 ch, 224 kbps - Русский (MVO, AB video) Формат субтитров: softsub (SRT) ***Релиз от: -=DoMiNo=- ***Сравнения => BD vs Hybrid 1080p | Open Matte***
[+] Примечания & Сравнения:ЦитатаКто-то писал:11/04/19 22:40 GMT +3 => Исправлена сцена с не до конца убранными французскими хардсабами Основа open matte источника - HDTV трансляции телеканалов TMC и France 2. Для скрытия хардсабов и битых кадров использован альтернативный трансфер WEB-DL, OAR HD DVD наложен поверх open matte источника с помощью AutoOverlay AviSynth plugin. Цвет на 20% скорректирован в сторону BD Criterion. Хронометраж соответствует HD DVD.
[+] M/Ix264 info: frame I:1530 Avg QP:15.58 size:149542 x264 info: frame P:34465 Avg QP:16.91 size: 75998 x264 info: frame B:149045 Avg QP:19.21 size: 30117 x264 info: consecutive B-frames: 1.3% 1.3% 3.1% 11.0% 11.8% 54.8% 9.3% 4.1% 3.3% General Complete name : Игра.(1997).Hybrid.720p.O.M.v2..mkv Format : Matroska Format version : Version 4 File size : 7.78 GiB Duration : 2 h 8 min Overall bit rate : 8 663 kb/s Movie name : The Game (1997) Encoded date : UTC 2019-04-13 19:13:07 Writing application : mkvmerge v33.0.0 ('A Little Bit of Madness') 64-bit Writing library : libebml v1.3.7 + libmatroska v1.5.0 Cover : Yes Attachments : cover Video ID : 1 Format : AVC Format/Info : Advanced Video Codec Format profile : High@L4.1 Format settings : CABAC / 9 Ref Frames Format settings, CABAC : Yes Format settings, ReFrames : 9 frames Codec ID : V_MPEG4/ISO/AVC Duration : 2 h 8 min Bit rate : 7 605 kb/s Width : 1 280 pixels Height : 720 pixels Display aspect ratio : 16:9 Frame rate mode : Constant Frame rate : 23.976 (24000/1001) FPS Color space : YUV Chroma subsampling : 4:2:0 Bit depth : 8 bits Scan type : Progressive Bits/(Pixel*Frame) : 0.344 Stream size : 6.83 GiB (88%) Title : RIP_BY_-=DoMiNo=- Writing library : x264 core 157 r2969 d4099dd Encoding settings : cabac=1 / ref=9 / deblock=1:-3:-3 / analyse=0x3:0x133 / me=umh / subme=11 / psy=1 / psy_rd=1.10:0.10 / mixed_ref=1 / me_range=32 / chroma_me=1 / trellis=2 / 8x8dct=1 / cqm=0 / deadzone=21,11 / fast_pskip=1 / chroma_qp_offset=-3 / threads=6 / lookahead_threads=1 / sliced_threads=0 / nr=0 / decimate=1 / interlaced=0 / bluray_compat=0 / constrained_intra=0 / bframes=8 / b_pyramid=2 / b_adapt=2 / b_bias=0 / direct=1 / weightb=1 / open_gop=0 / weightp=2 / keyint=250 / keyint_min=24 / scenecut=40 / intra_refresh=0 / rc_lookahead=250 / rc=crf / mbtree=0 / crf=18.0 / qcomp=0.60 / qpmin=0 / qpmax=69 / qpstep=4 / vbv_maxrate=50000 / vbv_bufsize=62500 / crf_max=0.0 / nal_hrd=none / filler=0 / ip_ratio=1.40 / pb_ratio=1.30 / aq=3:0.80 Language : English Default : Yes Forced : No Color range : Limited Color primaries : BT.709 Transfer characteristics : BT.709 Matrix coefficients : BT.709 Audio #1 ID : 2 Format : AC-3 Format/Info : Audio Coding 3 Commercial name : Dolby Digital Codec ID : A_AC3 Duration : 2 h 8 min Bit rate mode : Constant Bit rate : 384 kb/s Channel(s) : 6 channels Channel layout : L R C LFE Ls Rs Sampling rate : 48.0 kHz Frame rate : 31.250 FPS (1536 SPF) Bit depth : 16 bits Compression mode : Lossy Stream size : 353 MiB (4%) Title : DUB_ Language : Russian Service kind : Complete Main Default : Yes Forced : No Audio #2 ID : 3 Format : AC-3 Format/Info : Audio Coding 3 Commercial name : Dolby Digital Codec ID : A_AC3 Duration : 2 h 8 min Bit rate mode : Constant Bit rate : 448 kb/s Channel(s) : 6 channels Channel layout : L R C LFE Ls Rs Sampling rate : 48.0 kHz Frame rate : 31.250 FPS (1536 SPF) Bit depth : 16 bits Compression mode : Lossy Stream size : 412 MiB (5%) Title : MVO_ Language : Russian Service kind : Complete Main Default : No Forced : No Audio #3 ID : 4 Format : AC-3 Format/Info : Audio Coding 3 Commercial name : Dolby Digital Codec ID : A_AC3 Duration : 2 h 8 min Bit rate mode : Constant Bit rate : 224 kb/s Channel(s) : 2 channels Channel layout : L R Sampling rate : 48.0 kHz Frame rate : 31.250 FPS (1536 SPF) Bit depth : 16 bits Compression mode : Lossy Stream size : 206 MiB (3%) Title : MVO_ Language : Russian Service kind : Complete Main Default : No Forced : No Text #1 ID : 5 Format : UTF-8 Codec ID : S_TEXT/UTF8 Codec ID/Info : UTF-8 Plain Text Duration : 2 h 2 min Bit rate : 78 b/s Count of elements : 1190 Stream size : 70.1 KiB (0%) Title : RUS Language : Russian Default : No Forced : No Text #2 ID : 6 Format : UTF-8 Codec ID : S_TEXT/UTF8 Codec ID/Info : UTF-8 Plain Text Duration : 2 h 2 min Bit rate : 69 b/s Count of elements : 858 Stream size : 62.4 KiB (0%) Title : RUS Language : Russian Default : No Forced : No Text #3 ID : 7 Format : UTF-8 Codec ID : S_TEXT/UTF8 Codec ID/Info : UTF-8 Plain Text Duration : 2 h 0 min Bit rate : 50 b/s Count of elements : 1168 Stream size : 44.7 KiB (0%) Title : ENg Language : English Default : No Forced : No Text #4 ID : 8 Format : UTF-8 Codec ID : S_TEXT/UTF8 Codec ID/Info : UTF-8 Plain Text Duration : 2 h 7 min Bit rate : 61 b/s Count of elements : 1514 Stream size : 57.3 KiB (0%) Title : SDH Language : English Default : No Forced : No Menu 00:00:00.000 : :Opening titles 00:00:51.635 : :Birthday party 00:02:37.782 : :“Happy birthday, sir” 00:05:37.211 : :Profound life experience 00:09:13.094 : :Forty-eight 00:13:27.098 : :Consumer Recreation Services 00:17:39.724 : :“Confused . . . risky . . . bloody . . . whoops” 00:20:37.903 : :John 9:25 00:24:34.765 : :“This is your Game, and welcome to it” 00:30:33.206 : :Helping hand 00:33:45.898 : :“Don’t let her get away” 00:42:58.868 : :Czar Nicholas 00:50:55.344 : :Guy in the gray flannel suit 00:53:41.176 : :Hotel Nikko 00:58:56.699 : :Toyed with by depraved children 01:04:41.752 : :Nicholas Van Cocksucker 01:07:51.901 : :Human piñata 01:12:16.916 : :California Regal Sedans 01:15:43.163 : :Motive 01:18:40.757 : :Cable Repair Specialists 01:26:34.814 : :Blue 2/9690D 01:33:41.782 : :Entombed 01:37:15.287 : :“Can I have your attention, please?” 01:42:08.455 : :Trust Taggarene 01:44:59.376 : :“I love your work” 01:48:11.151 : :Pulling back the curtain 01:52:23.653 : :“This is the Game” 01:59:13.479 : :Cordially invited 02:03:29.610 : :End credits
[+] Скриншоты

Всего файлов в раздаче: 1 
Игра.(1997).Hybrid.720p.O.M.v2..[-=DoMiNo=-].mkv7.78 GB

Похожие раздачи по запросу - Игра
2024-04-21 magnet КВН-2024. Высшая лига. 1/8 финала. Игра третья [эфир от 20.04] (2024) WEBRip 1080p 6.41 GB ↑ 1 ↓ 0
2024-04-20 magnet КВН-2024. Высшая лига. 1/8 финала. Игра третья [эфир от 20.04] (2024) SATRip 1.45 GB ↑ 0 ↓ 0
2024-04-19 magnet Прекрасная игра / The Beautiful Game (2024) WEB-DLRip-AVC от DoMiNo & селезень | L | Soundmasters 2.02 GB ↑ 0 ↓ 0
2024-04-19 magnet Прекрасная игра / The Beautiful Game (2024) WEB-DLRip от DoMiNo & селезень | L | Soundmasters 1.45 GB ↑ 0 ↓ 0
2024-04-18 magnet Прекрасная игра / The Beautiful Game (2024) WEB-DL 1080p от New-Team | L | Soundmasters 5.22 GB ↑ 0 ↓ 0
2024-04-07 magnet КВН-2024. Высшая лига. 1/8 финала. Игра вторая [эфир от 06.04] (2024) WEBRip 1080p 1К9.58 GB ↑ 1 ↓ 0
2024-04-07 magnet КВН-2024. Высшая лига. 1/8 финала. Игра вторая [эфир от 06.04] (2024) SATRip 1.36 GB ↑ 0 ↓ 0

Комментарии


Зарегистрируйтесь чтобы добавить комментарий
Торрент клиент
byTorrent - программа для загрузки торрент-файлов.

Скачать byTorrent.exe (1,5 МБ)

Скачать byTorrent.zip (0,6 МБ)

Поддержи torrent.by
российских рублей
(300 российских рублей это 4$)

Обратная связь rss

End game ©