↑↓torrent.by
Поиск
Логин:  Регистрация
Пароль:

Воздух (2023) WEB-DL 720p от ExKinoRay | КиноПоиск HD

download Скачать торрент-файл   magnet Магнитная ссылка Размер: 6.11 GB Добавлен: 2024-04-01 17:00
Пиры будут получены из сети DHT
Последний сидер был замечен 2024-04-16 13:46
Информация о фильме Название: Воздух Год выхода: 2023 Жанр: военный, драма, история Режиссер: Алексей Герман мл. В ролях: Анастасия Талызина, Аглая Тарасова, Кристина Лапшина , Кристина Исайкина-Бергер, Елена Лядова, Антон Шагин, Сергей Безруков, Полина Дудкина, Петр Логачев, Филипп Дьячков О фильме: Великая Отечественная война. В СССР идут тяжелые бои, немецкая армия наступает. В смешанный авиационный полк прибывает подразделение летчиц. Все они — юные, необстрелянные и сперва не совсем понимают, что такое война. Девушкам приходится трудно в мужском мире, но они день за днем в череде воздушных схваток доказывают, что они не хуже мужчин. Страна: Россия Студия: АМЕДИА, Первый канал, Метрафильмс Перевод: не требуется Файл Формат: MKV Качество: WEB-DL 720p Видео : MPEG, 4000 Кбит/с, 1280x536, 25 кадр/с Аудио 1: Русский AC3, 6 ch, 448 Кбит/с RUS Аудио 2: Русский AC3, 6 ch, 448 Кбит/с | аудиодескрипция Аудио 3: Русский E-AC3, 6 ch, 448 Кбит/с Аудио 4: Русский E-AC3, 6 ch, 448 Кбит/с | аудиодескрипция Продолжительность: 02:31:25 Язык: Русский Субтитры:нет Реклама: Отсутствует
[+] МИ General Unique ID : 8385984718345629961694102087987186503 (0x64F14F7EFF577AAC5CAF7BFEED94B47) Complete name : G:Vozdukh.2023.WEB-DL.720p.ExKinoRay.mkv Format : Matroska Format version : Version 4 File size : 6.11 GiB Duration : 2 h 31 min Overall bit rate : 5 781 kb/s Movie name : Vozduh.2023.WEB-DL.1080p.ELEKTRI4KA. Encoded date : UTC 2024-04-01 10:25:37 Writing application : mkvmerge v56.1.0 ('My Friend') 64-bit Writing library : libebml v1.4.2 + libmatroska v1.6.4 Video ID : 1 Format : AVC Format/Info : Advanced Video Codec Format profile : High@L3.1 Format settings : CABAC / 6 Ref Frames Format settings, CABAC : Yes Format settings, Reference frames : 6 frames Codec ID : V_MPEG4/ISO/AVC Duration : 2 h 31 min Bit rate : 4 000 kb/s Width : 1 280 pixels Height : 536 pixels Display aspect ratio : 2.40:1 Frame rate mode : Constant Frame rate : 25.000 FPS Color space : YUV Chroma subsampling : 4:2:0 Bit depth : 8 bits Scan type : Progressive Bits/(Pixel*Frame) : 0.233 Stream size : 4.22 GiB (69%) Writing library : x264 core 157 Encoding settings : cabac=1 / ref=6 / deblock=1:0:0 / analyse=0x3:0x133 / me=umh / subme=10 / psy=1 / psy_rd=1.00:0.00 / mixed_ref=1 / me_range=24 / chroma_me=1 / trellis=2 / 8x8dct=1 / cqm=0 / deadzone=21,11 / fast_pskip=1 / chroma_qp_offset=-2 / threads=17 / lookahead_threads=2 / sliced_threads=0 / nr=0 / decimate=1 / interlaced=0 / bluray_compat=0 / stitchable=1 / constrained_intra=0 / bframes=8 / b_pyramid=2 / b_adapt=2 / b_bias=0 / direct=3 / weightb=1 / open_gop=0 / weightp=2 / keyint=250 / keyint_min=25 / scenecut=40 / intra_refresh=0 / rc_lookahead=60 / rc=2pass / mbtree=1 / bitrate=4000 / ratetol=1.0 / qcomp=0.60 / qpmin=0 / qpmax=69 / qpstep=4 / cplxblur=20.0 / qblur=0.5 / vbv_maxrate=4400 / vbv_bufsize=8000 / nal_hrd=none / filler=0 / ip_ratio=1.40 / aq=1:1.00 Language : Russian Default : Yes Forced : No Audio #1 ID : 2 Format : AC-3 Format/Info : Audio Coding 3 Commercial name : Dolby Digital Codec ID : A_AC3 Duration : 2 h 31 min Bit rate mode : Constant Bit rate : 448 kb/s Channel(s) : 6 channels Channel layout : L R C LFE Ls Rs Sampling rate : 48.0 kHz Frame rate : 31.250 FPS (1536 SPF) Compression mode : Lossy Stream size : 485 MiB (8%) Title : AC3 Language : Russian Service kind : Complete Main Default : Yes Forced : Yes Audio #2 ID : 3 Format : AC-3 Format/Info : Audio Coding 3 Commercial name : Dolby Digital Codec ID : A_AC3 Duration : 2 h 31 min Bit rate mode : Constant Bit rate : 448 kb/s Channel(s) : 6 channels Channel layout : L R C LFE Ls Rs Sampling rate : 48.0 kHz Frame rate : 31.250 FPS (1536 SPF) Compression mode : Lossy Stream size : 485 MiB (8%) Title : AC3 (Audiodeskriptsiya) Language : Russian Service kind : Complete Main Default : No Forced : No Audio #3 ID : 4 Format : E-AC-3 Format/Info : Enhanced AC-3 Commercial name : Dolby Digital Plus Codec ID : A_EAC3 Duration : 2 h 31 min Bit rate mode : Constant Bit rate : 448 kb/s Channel(s) : 6 channels Channel layout : L R C LFE Ls Rs Sampling rate : 48.0 kHz Frame rate : 31.250 FPS (1536 SPF) Compression mode : Lossy Stream size : 485 MiB (8%) Title : EAC3 Language : Russian Service kind : Complete Main Default : No Forced : No Audio #4 ID : 5 Format : E-AC-3 Format/Info : Enhanced AC-3 Commercial name : Dolby Digital Plus Codec ID : A_EAC3 Duration : 2 h 31 min Bit rate mode : Constant Bit rate : 448 kb/s Channel(s) : 6 channels Channel layout : L R C LFE Ls Rs Sampling rate : 48.0 kHz Frame rate : 31.250 FPS (1536 SPF) Compression mode : Lossy Stream size : 485 MiB (8%) Title : EAC3 (Audiodeskriptsiya) Language : Russian Service kind : Complete Main Default : No Forced : No
[+] Скриншоты
Релиз от:

Всего файлов в раздаче: 1 
Vozdukh.2023.WEB-DL.720p.ExKinoRay.mkv6.11 GB

Похожие раздачи по запросу - Воздух
2024-04-06 magnet Воздух (2023) WEB-DLRip-AVC от DoMiNo 745.53 MB ↑ 0 ↓ 3
2024-04-02 magnet Воздух (2023) WEB-DLRip от Generalfilm | КПК 575.90 MB ↑ 0 ↓ 0
2024-04-01 magnet Воздух [2023, военный, драма, история, WEB-DLRip-AVC] 2.18 GB ↑ 2 ↓ 0
2024-04-01 magnet Воздух (2023) WEB-DLRip-AVC от MegaPeer 2.17 GB ↑ 0 ↓ 0
2024-04-01 magnet Воздух (2023) WEB-DLRip от MegaPeer 1.46 GB ↑ 1 ↓ 0
2024-04-01 magnet Воздух (2023) WEB-DL 720p 4.36 GB ↑ 0 ↓ 1
2024-04-01 magnet Воздух (2023) WEB-DLRip от ELEKTRI4KA | КиноПоиск HD 2.19 GB ↑ 0 ↓ 0

Комментарии


Зарегистрируйтесь чтобы добавить комментарий
Торрент клиент
byTorrent - программа для загрузки торрент-файлов.

Скачать byTorrent.exe (1,5 МБ)

Скачать byTorrent.zip (0,6 МБ)

Поддержи torrent.by
российских рублей
(300 российских рублей это 4$)

Обратная связь rss

End game ©